<svg xmlns="http://www.w3.org/2000/svg">
<defs>
<font id="UpworkRza-Regular" horiz-adv-x="611" >
  <font-face 
    font-family="Upwork Rza"
    font-weight="505"
    font-stretch="normal"
    units-per-em="1000"
    panose-1="2 15 1 3 6 4 5 6 3 4"
    ascent="773"
    descent="-227"
    x-height="511"
    cap-height="715"
    bbox="-161.118 -265.286 3341 1053"
    underline-thickness="79"
    underline-position="-146"
    unicode-range="U+000D-FB05"
  />
<missing-glyph horiz-adv-x="964" 
d="M75 342v104l68 1q-2 6 -2 9q0 16 10 25q-2 36 60 36q50 0 75 -25l30 -30l3 -4l9 -9h25v-25l34 -35l-41 -75q-4 5 -11 16t-9 13h-26l-52 -213l98 184l3 -4l-106 -198l-23 -98h-5l19 81l-43 -81h-5l53 98l56 231h-12l-109 -329h-5l109 329h-16l-135 -329h-5l135 329h-16
l-166 -329h-5l166 329h-17l-199 -329h-5l199 329zM79 346l270 1v98h-17l-96 -1q0 -9 10 -18q-8 -1 -19.5 4t-13.5 14h-13q2 -12 6 -16q-25 2 -30 16h-10q3 -10 13 -18q-27 3 -35 17h-65v-97zM87 362h10v34h2l13 -34h9v63h-10v-33h-2l-13 33h-9v-63zM126 362h35v63h-35v-63z
M136 371v44h15v-44h-15zM165 447h10q0 12 7 20h-8q-9 -7 -9 -18v-2zM179 362h33v45h-17v-10h7v-26h-13v44h23v10h-33v-63zM200 447h13q0 13 6 20l-10 -1q-9 -8 -9 -19zM218 362h28v9h-18v54h-10v-63zM232 14h5l163 361l9 -9l-33 -86l-13 13l-3 3l-11 14l41 76l7 -8zM233 395
h22v-33h10v63h-10v-20h-11v20h-11v-30zM236 448h10l-5 9q-3 -2 -5 -9zM253 657v63l58 -45q51 26 113 26q46 0 118 -14q30 24 65 32q-5 -9 -8 -35t-6 -50t-20.5 -52t-48.5 -44q-5 -108 137 -186q125 -68 167 -131.5t13 -148.5q23 11 39 38.5t16 62.5q0 57 -27 86.5t-80 49.5
q-61 22 -90.5 50t-29.5 71q0 39 25.5 60t65.5 21q68 0 77 -50q2 -21 -7 -32l-5 14q-2 -5 -2 -16q0 -23 -49 -23q17 30 17 52q0 18 -28 18q-18 0 -30 -11.5t-12 -30.5q0 -39 79 -76q74 -32 99 -53q50 -43 50 -119q0 -77 -49 -126q-40 -40 -79.5 -49t-130.5 3q-18 -10 -18 -25
q0 -10 11 -19q-14 -1 -25 6.5t-11 17.5q0 13 13 24h-13q-13 -21 -13 -25q0 -9 11 -23q-35 4 -35 27q0 12 12 22l-7 1q-13 -11 -13 -26q0 -4 7 -21q-32 11 -32 31q0 9 15 28q-3 21 11 32t33 11q18 0 80 -13l-3 32q-2 20 -15.5 34t-29.5 20.5t-49 18.5t-55 22l-7 -141

<glyph glyph-name="f_f" unicode="ff" horiz-adv-x="658" 
d="M82 0q-9 0 -14.5 5t-5.5 12q0 13 23 26t23 26v393h-67q-18 0 -18 17v15q0 17 18 17h66v34q0 86 56.5 135.5t153.5 49.5q85 0 150 -45q54 45 148 45q76 0 126 -28t50 -73q0 -24 -15 -39t-41 -15q-28 0 -48.5 17.5t-31 38.5t-30 38.5t-45.5 17.5q-64 0 -64 -95v-81h115
q18 0 18 -17v-15q0 -17 -18 -17h-115v-393q0 -13 22.5 -25.5t22.5 -26.5q0 -7 -5.5 -12t-14.5 -5h-159q-9 0 -14.5 5t-5.5 12q0 14 22 26.5t22 25.5v393h-189v-393q0 -13 23 -26t23 -26q0 -7 -6 -12t-16 -5h-159zM217 511h189v62q0 30 9 51q-67 64 -116 64q-82 0 -82 -111
v-66z" />
    <glyph glyph-name="fi" unicode="fi" horiz-adv-x="604" 
d="M82 0q-9 0 -15 5t-6 12q0 13 23.5 26t23.5 26v393h-67q-18 0 -18 17v15q0 17 18 17h67v45q0 80 55 127t150 47q86 0 137.5 -30t51.5 -77q0 -24 -15.5 -39t-41.5 -15q-28 0 -48 18.5t-30.5 40.5t-31 40.5t-48.5 18.5q-70 0 -70 -88v-88h194q21 0 49.5 6t33.5 6
q20 0 20 -24v-430q0 -13 23 -26t23 -26q0 -7 -5.5 -12t-14.5 -5h-160q-9 0 -15 5t-6 12q0 13 23 26t23 26v354q0 39 -38 39h-150v-393q0 -13 23 -26t23 -26q0 -17 -21 -17h-160z" />
    <glyph glyph-name="fl" unicode="fl" horiz-adv-x="608" 
d="M82 0q-9 0 -15 5t-6 12q0 13 23.5 26t23.5 26v393h-67q-18 0 -18 17v15q0 17 18 17h67v34q0 85 54.5 135t150.5 50q68 0 131 -31l50 23q10 5 17 0.5t7 -15.5v-638q0 -13 23 -26t23 -26q0 -7 -6 -12t-15 -5h-160q-9 0 -14.5 5t-5.5 12q0 13 23 26t23 26v529q0 15 -9 25
q-62 65 -105 65q-78 0 -78 -111v-66h81q18 0 18 -17v-15q0 -17 -18 -17h-81v-393q0 -13 23 -26t23 -26q0 -17 -21 -17h-160z" />
    <glyph glyph-name="f_f_i" unicode="ffi" horiz-adv-x="903" 
d="M82 0q-9 0 -14.5 5t-5.5 12q0 13 23 26t23 26v393h-67q-18 0 -18 17v15q0 17 18 17h66v31q0 88 56 138t154 50q71 0 152 -43q55 43 145 43q84 0 135 -30.5t51 -76.5q0 -24 -15 -39t-41 -15q-27 0 -47 18.5t-31.5 40.5t-32 40.5t-47.5 18.5q-70 0 -70 -88v-88h195
q21 0 49 6t33 6q21 0 21 -24v-430q0 -13 22.5 -25.5t22.5 -26.5q0 -7 -6 -12t-15 -5h-159q-9 0 -14.5 5t-5.5 12q0 13 23 26t23 26v354q0 39 -40 39h-149v-393q0 -13 22.5 -25.5t22.5 -26.5q0 -7 -5.5 -12t-14.5 -5h-159q-9 0 -14.5 5t-5.5 12q0 14 22 26.5t22 25.5v393
h-189v-393q0 -13 23 -26t23 -26q0 -7 -6 -12t-16 -5h-159zM217 511h189v62q0 30 9 51q-67 64 -116 64q-82 0 -82 -111v-66z" />
    <glyph glyph-name="f_f_l" unicode="ffl" horiz-adv-x="906" 
d="M82 0q-9 0 -14.5 5t-5.5 12q0 13 23 26t23 26v393h-67q-18 0 -18 17v15q0 17 18 17h66v34q0 86 56.5 135.5t153.5 49.5q66 0 153 -44q55 44 145 44q65 0 127 -31l50 23q11 5 18 0.5t7 -15.5v-638q0 -13 22.5 -25.5t22.5 -26.5q0 -7 -6 -12t-15 -5h-159q-9 0 -14.5 5
t-5.5 12q0 14 22.5 26.5t22.5 25.5v529q0 16 -8 25q-63 65 -105 65q-79 0 -79 -111v-66h82q17 0 17 -17v-15q0 -17 -17 -17h-82v-393q0 -13 23 -26t23 -26q0 -7 -6 -12t-15 -5h-158q-9 0 -15.5 5t-6.5 12q0 13 23 26t23 26v393h-189v-393q0 -13 23 -26t23 -26q0 -7 -6 -12
t-16 -5h-159zM217 511h189v59q0 32 9 54q-65 64 -116 64q-82 0 -82 -111v-66z" />
    <glyph glyph-name=".notdef" horiz-adv-x="964" 
d="M75 342v104l68 1q-2 6 -2 9q0 16 10 25q-2 36 60 36q50 0 75 -25l30 -30l3 -4l9 -9h25v-25l34 -35l-41 -75q-4 5 -11 16t-9 13h-26l-52 -213l98 184l3 -4l-106 -198l-23 -98h-5l19 81l-43 -81h-5l53 98l56 231h-12l-109 -329h-5l109 329h-16l-135 -329h-5l135 329h-16
l-166 -329h-5l166 329h-17l-199 -329h-5l199 329zM79 346l270 1v98h-17l-96 -1q0 -9 10 -18q-8 -1 -19.5 4t-13.5 14h-13q2 -12 6 -16q-25 2 -30 16h-10q3 -10 13 -18q-27 3 -35 17h-65v-97zM87 362h10v34h2l13 -34h9v63h-10v-33h-2l-13 33h-9v-63zM126 362h35v63h-35v-63z
M136 371v44h15v-44h-15zM165 447h10q0 12 7 20h-8q-9 -7 -9 -18v-2zM179 362h33v45h-17v-10h7v-26h-13v44h23v10h-33v-63zM200 447h13q0 13 6 20l-10 -1q-9 -8 -9 -19zM218 362h28v9h-18v54h-10v-63zM232 14h5l163 361l9 -9l-33 -86l-13 13l-3 3l-11 14l41 76l7 -8zM233 395
h22v-33h10v63h-10v-20h-11v20h-11v-30zM236 448h10l-5 9q-3 -2 -5 -9zM253 657v63l58 -45q51 26 113 26q46 0 118 -14q30 24 65 32q-5 -9 -8 -35t-6 -50t-20.5 -52t-48.5 -44q-5 -108 137 -186q125 -68 167 -131.5t13 -148.5q23 11 39 38.5t16 62.5q0 57 -27 86.5t-80 49.5
q-61 22 -90.5 50t-29.5 71q0 39 25.5 60t65.5 21q68 0 77 -50q2 -21 -7 -32l-5 14q-2 -5 -2 -16q0 -23 -49 -23q17 30 17 52q0 18 -28 18q-18 0 -30 -11.5t-12 -30.5q0 -39 79 -76q74 -32 99 -53q50 -43 50 -119q0 -77 -49 -126q-40 -40 -79.5 -49t-130.5 3q-18 -10 -18 -25
q0 -10 11 -19q-14 -1 -25 6.5t-11 17.5q0 13 13 24h-13q-13 -21 -13 -25q0 -9 11 -23q-35 4 -35 27q0 12 12 22l-7 1q-13 -11 -13 -26q0 -4 7 -21q-32 11 -32 31q0 9 15 28q-3 21 11 32t33 11q18 0 80 -13l-3 32q-2 20 -15.5 34t-29.5 20.5t-49 18.5t-55 22l-7 -141
q-1 -17 -7 -24t-18 -4q-20 -16 -20 -29q0 -6 8 -18q-32 4 -32 25q0 11 11 22h-11q-13 -18 -13 -24q0 -10 11 -21q-14 0 -25 5.5t-11 14.5t8 25h-6q-11 -13 -11 -24q0 -12 11 -18q-14 -1 -25.5 7.5t-11.5 19.5q0 13 15 30q-4 18 10.5 30t34.5 9l20 -3l-28 165q-22 1 -47 14
l19 87l14 -15l-7 47l44 210q44 0 85 54q-24 24 -61 31l-24 -85h-1l-14 76q-23 -13 -45 -42q8 -34 59 -34l-59 -109l-6 36q-40 13 -76 30l4 15l4 18q42 2 67 46q-18 28 -52 31l-15 -77h-1l-18 73q-7 -4 -25 -14t-26 -16q6 -43 69 -43l-11 -16l-7 -11q-84 44 -84 117zM272 362
h10v33h21v30h-31v-63zM276 14h5l131 349l9 -10l-26 -89q-15 12 -16 13l-3 3zM282 405v10h11v-10h-11zM297 481l3 -3l43 69l-4 -8l-2 1zM303 475l4 -4l38 75l-4 -8l-2 1zM310 468l3 -3l34 80l-3 -8l-3 1zM311 362h10v33h11v-33h9v63h-9v-20h-11v20h-10v-63zM316 462l3 -4
l30 86l-3 -9l-2 2zM321 14h5l99 336l11 -12l-19 -88q-6 3 -18 11l-4 3zM322 455l4 -4l22 83l-1 1h-1zM366 14h5l49 234l-3 2zM387 389l3 -3l78 147l-36 -79l-2 14zM397 378l3 -3l69 151l-34 -91l-3 19zM409 366l3 -3l58 156l-32 -107l-3 23zM421 353l4 -3l50 171l-31 -144
l-6 35zM436 338l3 -3l7 32l-2 10z" />
    <glyph glyph-name=".null" horiz-adv-x="0" 
 />
    <glyph glyph-name="uni000D" unicode="&#xd;" horiz-adv-x="259" 
 />
    <glyph glyph-name="space" unicode=" " horiz-adv-x="259" 
 />
    <glyph glyph-name="exclam" unicode="!" horiz-adv-x="287" 
d="M129 215q-18 103 -38 248.5t-20 182.5t19 60.5t54 23.5t53.5 -23.5t18.5 -60.5t-20 -182.5t-38 -248.5q-1 -10 -7.5 -14t-13 0t-8.5 14zM67 61q0 32 22 54.5t54 22.5t54.5 -22.5t22.5 -54.5t-22.5 -54t-54.5 -22t-54 22t-22 54z" />
    <glyph glyph-name="quotedbl" unicode="&#x22;" horiz-adv-x="377" 
d="M120 467q-3 -12 -11 -12t-11 12l-46 180q-8 32 8 57.5t49 25.5q34 0 50 -25.5t7 -57.5zM210 647q-8 32 8 57.5t49 25.5q34 0 50 -25.5t7 -57.5l-46 -180q-3 -12 -11 -12t-11 12z" />
    <glyph glyph-name="numbersign" unicode="#" horiz-adv-x="636" 
d="M318 0q-8 0 -11.5 4.5t-1.5 11.5l60 222h-147l-61 -226q-3 -12 -15 -12h-7q-16 0 -12 16l60 222h-131q-14 0 -14 15v2q0 14 14 14h139l37 140h-135q-15 0 -15 15v2q0 14 15 14h144l57 213q3 12 16 12h7q17 0 12 -16l-56 -209h147l58 213q3 12 15 12h6q16 0 12 -16
l-56 -209h130q14 0 14 -14v-2q0 -15 -14 -15h-138l-38 -140h135q14 0 14 -14v-2q0 -15 -14 -15h-143l-61 -226q-3 -12 -15 -12h-7zM226 269h148l38 140h-148z" />
    <glyph glyph-name="dollar" unicode="$" horiz-adv-x="546" 
d="M252 -40l2 48q-80 5 -139.5 41t-59.5 100q0 31 15.5 49t45.5 18q55 0 55 -68q0 -44 18.5 -67.5t65.5 -27.5l8 225l-17 8q-173 79 -173 195q0 70 49.5 114t131.5 51l-2 47q0 21 14 30t28 0t14 -30l-2 -47q74 -6 127 -41t53 -96q0 -62 -55 -62q-58 0 -58 72q0 35 -14.5 56
t-53.5 27l-8 -212q103 -51 143.5 -94t40.5 -107q0 -79 -47.5 -125.5t-127.5 -55.5l2 -48q0 -21 -14 -30t-28 0t-14 30zM168 516q0 -29 21 -54t73 -53l-7 193q-44 -6 -65.5 -29t-21.5 -57zM297 260l8 -206q88 10 88 89q0 34 -21.5 61t-74.5 56z" />
    <glyph glyph-name="percent" unicode="%" horiz-adv-x="857" 
d="M252 11q-11 -18 -28.5 -18t-23.5 14t5 33l218 300l184 303q11 18 29 18t24 -13.5t-6 -33.5l-218 -302zM42 450q0 89 50 148.5t124 59.5t124.5 -59.5t50.5 -148.5t-50.5 -148.5t-124.5 -59.5t-124 59.5t-50 148.5zM146 398q0 -119 70 -119q71 0 71 119v104q0 119 -71 119
q-70 0 -70 -119v-104zM468 195q0 89 50 148.5t124 59.5t124.5 -59.5t50.5 -148.5t-50.5 -148.5t-124.5 -59.5t-124 59.5t-50 148.5zM572 143q0 -119 70 -119q71 0 71 119v104q0 119 -71 119q-70 0 -70 -119v-104z" />
    <glyph glyph-name="ampersand" unicode="&#x26;" horiz-adv-x="680" 
d="M550 0q-26 0 -45 13t-42 48l-23 35q-50 -55 -98 -83t-112 -28q-93 0 -142.5 51t-49.5 130q0 145 189 249l-17 25q-41 62 -41 128q0 69 48.5 115.5t125.5 46.5q70 0 114.5 -39t44.5 -98q0 -47 -34 -86t-113 -84l136 -200q49 72 49 101q0 17 -14 43.5t-14 42.5
q0 23 14.5 36.5t35.5 13.5q25 0 42.5 -19.5t17.5 -52.5q0 -34 -23.5 -78.5t-82.5 -123.5l61 -90q15 -22 36 -37t33 -23.5t12 -18.5q0 -17 -18 -17h-90zM153 199q0 -61 35.5 -93.5t86.5 -32.5q77 0 138 64l-156 233q-44 -25 -74 -70.5t-30 -100.5zM259 608q0 -43 31 -89
l35 -52q72 60 72 129q0 88 -67 88q-33 0 -52 -21t-19 -55z" />
    <glyph glyph-name="quotesingle" unicode="'" horiz-adv-x="218" 
d="M120 467q-3 -12 -11 -12t-11 12l-46 180q-8 32 8 57.5t49 25.5q34 0 50 -25.5t7 -57.5z" />
    <glyph glyph-name="parenleft" unicode="(" horiz-adv-x="338" 
d="M293 -67q-106 53 -176 160.5t-70 245.5q0 139 70 246t176 160q16 9 22.5 0.5t-5.5 -20.5q-138 -140 -138 -354v-63q0 -214 138 -355q12 -12 5.5 -20t-22.5 0z" />
    <glyph glyph-name="parenright" unicode=")" horiz-adv-x="338" 
d="M45 -67q-16 -8 -22.5 0t5.5 20q138 141 138 355v63q0 214 -138 354q-12 12 -5.5 20.5t22.5 -0.5q106 -53 176 -160t70 -246q0 -138 -70 -245.5t-176 -160.5z" />
    <glyph glyph-name="asterisk" unicode="*" horiz-adv-x="438" 
d="M110 488q-16 10 -17.5 30.5t12.5 36.5q10 12 42 33.5t51 37.5q-26 4 -68.5 3t-50.5 4q-19 7 -27.5 23t-3.5 35t21.5 26.5t37.5 1.5q14 -4 45.5 -28t52.5 -36q-5 22 -18 59.5t-13 53.5q0 21 12.5 35t32.5 14q19 0 32 -14t13 -35q0 -16 -13 -52.5t-18 -60.5q20 12 51.5 36
t46.5 28q20 6 37 -1.5t22 -26.5q5 -18 -3.5 -34.5t-28.5 -23.5q-14 -5 -49.5 -4t-68.5 -3q19 -16 51 -37.5t42 -33.5q13 -16 11.5 -36t-16.5 -31q-15 -10 -34.5 -6.5t-32.5 19.5q-10 12 -21 49.5t-21 57.5q-10 -20 -21 -57.5t-21 -49.5q-13 -16 -32 -19.5t-35 6.5z" />
    <glyph glyph-name="plus" unicode="+" horiz-adv-x="514" 
d="M229 120l11 161l-156 -12q-19 -1 -27 13.5t0 29t27 13.5l156 -11l-11 160q-1 18 13.5 26t28.5 0t13 -26l-10 -160l157 11q18 1 26 -13.5t0 -29t-26 -13.5l-157 12l10 -161q1 -19 -13 -27t-28.5 0t-13.5 27z" />
    <glyph glyph-name="comma" unicode="," horiz-adv-x="284" 
d="M56 61q0 32 23 54.5t58 22.5q44 0 67 -28.5t23 -74.5q0 -69 -45.5 -123t-84.5 -54q-8 0 -13.5 5t-5.5 11q0 9 12 18q36 31 50.5 51t14.5 38q0 12 -8 12q-2 0 -10 -1.5t-14 -1.5q-27 0 -47 20.5t-20 50.5z" />
    <glyph glyph-name="hyphen" unicode="-" horiz-adv-x="376" 
d="M76 264q-17 0 -17 17v22q0 18 17 18h223q18 0 18 -18v-22q0 -17 -18 -17h-223z" />
    <glyph glyph-name="period" unicode="." horiz-adv-x="265" 
d="M132 -15q-32 0 -54 22t-22 54t22 54.5t54 22.5t54.5 -22.5t22.5 -54.5t-22.5 -54t-54.5 -22z" />
    <glyph glyph-name="slash" unicode="/" horiz-adv-x="421" 
d="M47 -153q-20 0 -14 21l295 832q5 15 20 15h26q20 0 14 -20l-294 -831q-6 -17 -24 -17h-23z" />
    <glyph glyph-name="zero" unicode="0" horiz-adv-x="632" 
d="M317 -12q-119 0 -189.5 99.5t-70.5 236.5q0 138 70.5 236t189.5 98t188.5 -98t69.5 -236q0 -88 -29 -163t-89 -124t-140 -49zM197 288q0 -121 26.5 -187.5t93.5 -66.5q66 0 92.5 67t26.5 187v70q0 120 -26.5 187.5t-92.5 67.5q-67 0 -93.5 -67t-26.5 -188v-70z" />
    <glyph glyph-name="one" unicode="1" horiz-adv-x="350" 
d="M98 0q-9 0 -15 5t-6 11q0 10 8 17.5t17.5 12t17.5 15t8 25.5v420l-73 20q-13 4 -14 14.5t12 17.5l163 87q11 5 19 1t8 -17v-543q0 -19 13 -30t26 -19.5t13 -20.5q0 -6 -5.5 -11t-14.5 -5h-177z" />
    <glyph glyph-name="two" unicode="2" horiz-adv-x="542" 
d="M48 0q-14 0 -17.5 9t6.5 20q21 21 68 67t64.5 63.5t52.5 54.5t48.5 56t35.5 50.5t30 55t15 52.5t7 59q0 60 -24.5 92.5t-72.5 32.5q-38 0 -59 -16t-21 -42q0 -8 14 -35t14 -42q0 -28 -18 -47t-50 -19q-33 0 -52.5 22.5t-19.5 60.5q0 68 54.5 115.5t147.5 47.5t150.5 -54
t57.5 -134q0 -86 -73.5 -172t-251.5 -204l195 -1q31 0 50 31l39 70q8 14 16.5 12t8.5 -18v-164q0 -23 -22 -23h-393z" />
    <glyph glyph-name="three" unicode="3" horiz-adv-x="530" 
d="M245 -12q-85 0 -139 39.5t-54 96.5q0 34 18.5 56t51.5 22q63 0 63 -77q0 -50 15.5 -71t54.5 -21q54 0 78.5 35t24.5 90q0 74 -39 114t-122 47q-9 1 -13 7.5t-1 13.5t12 9q142 38 142 156q0 107 -91 107q-30 0 -49.5 -13.5t-19.5 -36.5q0 -10 9 -34.5t9 -38.5
q0 -24 -16 -38.5t-44 -14.5q-32 0 -50 20t-18 52q0 61 54.5 105t144.5 44q80 0 132.5 -42t52.5 -112q0 -110 -147 -147q83 -10 126 -53.5t43 -112.5q0 -86 -60.5 -144t-167.5 -58z" />
    <glyph glyph-name="four" unicode="4" horiz-adv-x="574" 
d="M289 0q-20 0 -20 18q0 10 8 16.5t17.5 10.5t17.5 13.5t8 23.5v103h-274q-21 0 -21 21v31q0 18 10 30l275 358q15 19 30 19h70q23 0 23 -25v-363h96q7 0 9.5 -5t-0.5 -12l-15 -40q-6 -14 -20 -14h-70v-103q0 -14 8 -23.5t17 -13.5t17 -11t8 -17q0 -17 -21 -17h-173z
M101 256h219v286z" />
    <glyph glyph-name="five" unicode="5" horiz-adv-x="538" 
d="M251 -12q-88 0 -146 44t-58 103q0 35 19 56t51 21t48.5 -20.5t16.5 -55.5q0 -59 13 -81t56 -22q116 0 116 151q0 170 -141 170q-47 0 -119 -19q-14 -4 -21.5 2t-5.5 21q23 140 31 230q4 56 66 56h218q21 0 39 9t25 9q20 0 12 -27l-17 -64q-8 -24 -30 -24h-260l-20 -157
q78 39 152 39q77 0 129.5 -50t52.5 -147q0 -110 -63.5 -177t-163.5 -67z" />
    <glyph glyph-name="six" unicode="6" horiz-adv-x="568" 
d="M286 -12q-110 0 -169.5 84.5t-59.5 220.5q0 98 30 179t95.5 133t156.5 52q72 0 118 -32t46 -89q0 -36 -18 -57.5t-50 -21.5q-28 0 -44.5 17t-16.5 52q0 14 3.5 33t3.5 25q0 33 -49 33q-124 0 -148 -246q62 40 138 40q86 0 133.5 -46t47.5 -139q0 -109 -60 -173.5
t-157 -64.5zM180 280q0 -247 107 -247q96 0 96 182q0 144 -107 144q-52 0 -95 -36q-1 -14 -1 -43z" />
    <glyph glyph-name="seven" unicode="7" horiz-adv-x="500" 
d="M108 0q-22 0 -12 21l308 532h-242q-29 0 -50.5 -15.5t-36 -31.5t-24.5 -16q-8 0 -13.5 6.5t-1.5 20.5l32 108q5 19 23 19h365q11 0 15.5 -7t-0.5 -17l-236 -604q-6 -16 -23 -16h-104z" />
    <glyph glyph-name="eight" unicode="8" horiz-adv-x="566" 
d="M291 -12q-110 0 -172.5 46t-62.5 116q0 55 38.5 98t106.5 65q-126 70 -126 173q0 70 58 121t153 51q88 0 146.5 -45.5t57.5 -110.5q0 -49 -35.5 -86.5t-90.5 -54.5q76 -40 110 -82t34 -101q0 -78 -53.5 -134t-163.5 -56zM169 522q0 -40 35.5 -70t124.5 -74q26 21 43 55
t17 70q1 46 -29 78t-83 32q-48 0 -78 -24.5t-30 -66.5zM172 157q0 -57 32 -90.5t90 -33.5t84 27.5t26 69.5q0 51 -36.5 86t-132.5 80q-63 -53 -63 -139z" />
    <glyph glyph-name="nine" unicode="9" horiz-adv-x="567" 
d="M246 -12q-75 0 -126 35.5t-51 91.5q0 32 18.5 53t49.5 21q28 0 44.5 -17.5t16.5 -49.5q0 -48 10.5 -67t42.5 -19q34 0 58.5 19t39.5 55.5t23 80t12 99.5q-56 -39 -137 -39q-86 0 -136 49t-50 131q0 101 63.5 163.5t162.5 62.5q108 0 165 -79t57 -210q0 -168 -70 -274
t-193 -106zM181 459q0 -69 29 -106.5t82 -37.5q57 0 94 24q1 20 1 62q0 49 -4 84t-15 65t-32 45.5t-52 15.5q-49 0 -76 -40t-27 -112z" />
    <glyph glyph-name="colon" unicode=":" horiz-adv-x="289" 
d="M144 -15q-32 0 -54 22t-22 54t22 54.5t54 22.5t54.5 -22.5t22.5 -54.5t-22.5 -54t-54.5 -22zM68 409q0 32 22 54.5t54 22.5t54.5 -22.5t22.5 -54.5t-22.5 -54t-54.5 -22t-54 22t-22 54z" />
    <glyph glyph-name="semicolon" unicode=";" horiz-adv-x="309" 
d="M152 330q-32 0 -54 22t-22 54t22 54.5t54 22.5t54.5 -22.5t22.5 -54.5t-22.5 -54t-54.5 -22zM67 61q0 32 23 54.5t58 22.5q44 0 67 -28.5t23 -74.5q0 -69 -45.5 -123t-84.5 -54q-8 0 -13.5 5t-5.5 11q0 9 12 18q36 31 50.5 51t14.5 38q0 12 -8 12q-2 0 -10 -1.5t-14 -1.5
q-27 0 -47 20.5t-20 50.5z" />
    <glyph glyph-name="less" unicode="&#x3c;" horiz-adv-x="520" 
d="M72 266q-22 10 -22 31t22 31l330 152q30 13 42 -8q10 -19 -6 -32q-3 -2 -7 -4l-336 -139l336 -139q20 -8 15.5 -29t-27.5 -20q-8 1 -17 5z" />
    <glyph glyph-name="equal" unicode="=" horiz-adv-x="569" 
d="M97 336q-15 0 -21.5 11t0 22.5t21.5 11.5h376q15 0 21 -11.5t0 -22.5t-21 -11h-376zM97 206q-15 0 -21.5 11t0 22.5t21.5 11.5h376q15 0 21 -11t0 -22.5t-21 -11.5h-376z" />
    <glyph glyph-name="greater" unicode="&#x3e;" horiz-adv-x="520" 
d="M448 329q22 -11 22 -31t-22 -31l-330 -152q-30 -13 -42 8q-10 19 6 32l7 4l336 139l-336 139q-20 8 -15.5 29t27.5 20l17 -5z" />
    <glyph glyph-name="question" unicode="?" horiz-adv-x="486" 
d="M236 198q-76 0 -120 35.5t-44 96.5q0 46 27.5 81.5t66 57.5t77.5 42.5t66.5 48t27.5 62.5q0 68 -72 68q-34 0 -54 -16t-28.5 -39t-16 -46t-22.5 -39t-42 -16q-25 0 -39.5 13.5t-14.5 37.5q0 54 61.5 98t154.5 44q79 0 126 -36.5t47 -93.5q0 -48 -27.5 -83.5t-66.5 -57
t-77.5 -41.5t-66 -47t-27.5 -63q0 -32 18.5 -50.5t49.5 -18.5q32 0 49 22t21 48t18 48t41 22q46 0 46 -49q0 -51 -50 -90t-129 -39zM158 60q0 32 22 54.5t53 22.5q32 0 54 -22.5t22 -54.5q0 -31 -22 -53t-54 -22q-31 0 -53 21.5t-22 53.5z" />
    <glyph glyph-name="at" unicode="@" horiz-adv-x="775" 
d="M371 -85q-150 0 -235.5 85t-85.5 220q0 148 103 251t268 103q136 0 228 -75.5t92 -191.5q0 -88 -53.5 -159.5t-147.5 -71.5q-43 0 -70 17t-33 42q-48 -56 -107 -56q-53 0 -84 36t-31 95q0 89 59.5 157.5t137.5 68.5q32 0 52 -14t23 -37l55 21q8 3 11.5 -0.5t2.5 -12.5
l-46 -229q-4 -26 8.5 -41.5t38.5 -15.5q51 0 91.5 60t40.5 140q0 100 -73 165t-195 65q-143 0 -231.5 -92t-88.5 -227q0 -122 78.5 -193.5t199.5 -71.5q130 0 228 82q11 8 17 3.5t-2 -17.5q-34 -52 -103 -79t-148 -27zM298 229q0 -43 20 -65.5t52 -22.5q33 0 64 19
q1 23 17 101.5t17 91.5q-1 21 -16 33.5t-39 12.5q-47 0 -81 -46.5t-34 -123.5z" />
    <glyph glyph-name="A" unicode="A" horiz-adv-x="691" 
d="M21 0q-18 0 -18 14q0 10 11 19t27 24t24 36l206 517q8 26 6 38.5t-8 27.5t-6 22q0 17 19 17h75q27 0 36 -20l235 -599q11 -28 34.5 -49t23.5 -32q0 -15 -17 -15h-200q-18 0 -18 14q0 12 24 31t24 36q0 9 -7 28l-34 88h-286l-34 -89q-7 -17 -7 -33q0 -18 23 -34t23 -27
q0 -14 -18 -14h-138zM192 247h247l-123 322z" />
    <glyph glyph-name="B" unicode="B" horiz-adv-x="681" 
d="M82 0q-9 0 -14.5 5t-5.5 11q0 16 26 31.5t26 38.5v543q0 23 -26 38.5t-26 31.5q0 6 5.5 11t14.5 5h204q308 0 308 -172q0 -51 -42 -91.5t-122 -65.5q202 -38 202 -182q0 -95 -77 -149.5t-224 -54.5h-249zM233 88q0 -22 8.5 -30.5t29.5 -8.5h54q95 0 136.5 36.5
t41.5 111.5q0 77 -47 117t-154 40h-69v-266zM233 404h65q170 0 170 131q0 63 -37.5 97t-131.5 34h-37q-29 0 -29 -29v-233z" />
    <glyph glyph-name="C" unicode="C" horiz-adv-x="705" 
d="M401 -15q-157 0 -252.5 104.5t-95.5 269.5t97 268t250 103q109 0 183.5 -51t74.5 -127q0 -37 -20 -60.5t-54 -23.5t-54.5 22t-20.5 60q0 8 1.5 24t1.5 23q0 37 -29.5 59.5t-85.5 22.5q-101 0 -164.5 -74t-63.5 -204q0 -138 70 -223.5t189 -85.5q56 0 102.5 19t75 38.5
t39.5 19.5q15 0 15 -18q0 -39 -51 -92q-77 -74 -208 -74z" />
    <glyph glyph-name="D" unicode="D" horiz-adv-x="751" 
d="M82 0q-9 0 -14.5 5t-5.5 11q0 12 13 20.5t26 19.5t13 30v543q0 23 -26 38.5t-26 31.5q0 6 5.5 11t14.5 5h231q182 0 283.5 -94t101.5 -262q0 -170 -101.5 -264.5t-281.5 -94.5h-233zM233 77q0 -28 29 -28h32q134 0 201.5 75t67.5 233q0 147 -69 228t-203 81h-29
q-29 0 -29 -29v-560z" />
    <glyph glyph-name="E" unicode="E" horiz-adv-x="671" 
d="M82 0q-9 0 -14.5 5t-5.5 11q0 14 26 30t26 40v543q0 15 -8 25t-18 14.5t-18 12t-8 18.5q0 6 5.5 11t14.5 5h474q51 0 51 -48v-131q0 -19 -14 -22t-24 12l-60 95q-27 43 -81 43h-166q-29 0 -29 -29v-228h120q39 0 57 33l39 61q11 18 23.5 14.5t12.5 -24.5v-219
q0 -21 -12.5 -24.5t-23.5 15.5l-39 61q-17 32 -57 32h-120v-267q0 -21 9 -29.5t29 -8.5h154q31 0 50 9.5t35 34.5l58 95q10 17 24 14t14 -22v-132q0 -50 -52 -50h-472z" />
    <glyph glyph-name="F" unicode="F" horiz-adv-x="631" 
d="M82 0q-9 0 -14.5 5t-5.5 11q0 16 26 31.5t26 38.5v543q0 23 -26 38.5t-26 31.5q0 6 5.5 11t14.5 5h467q51 0 51 -48v-131q0 -18 -14 -21.5t-23 11.5l-61 95q-27 43 -81 43h-159q-29 0 -29 -29v-228h118q37 0 57 33l39 62q10 17 23 13.5t13 -23.5v-219q0 -22 -12.5 -25.5
t-23.5 15.5l-39 61q-18 32 -57 32h-118v-270q0 -16 8 -26.5t17.5 -14.5t17.5 -11.5t8 -17.5q0 -16 -20 -16h-182z" />
    <glyph glyph-name="G" unicode="G" horiz-adv-x="746" 
d="M376 -15q-146 0 -235 100t-89 254q0 166 102 278.5t262 112.5q108 0 182.5 -51t74.5 -128q0 -37 -19 -60.5t-54 -23.5q-34 0 -55 23t-21 63q0 7 1 22.5t1 21.5q0 38 -29 61t-85 23q-105 0 -171 -80.5t-66 -213.5q0 -138 70.5 -220.5t195.5 -82.5q78 0 131 26v128
q0 20 -17 34t-38 20t-38 17.5t-17 27.5q0 23 29 23h155q31 0 31 -27v-326q0 -17 -13 -20.5t-28 12.5l-37 42q-16 18 -44 -1q-76 -55 -179 -55z" />
    <glyph glyph-name="H" unicode="H" horiz-adv-x="796" 
d="M533 0q-21 0 -21 16t25.5 31.5t25.5 38.5v253h-330v-253q0 -16 8 -26.5t17.5 -14.5t17.5 -11.5t8 -17.5q0 -16 -20 -16h-182q-9 0 -14.5 5t-5.5 11q0 12 13 20.5t26 19.5t13 30v543q0 23 -26 38.5t-26 31.5q0 6 5.5 11t14.5 5h182q20 0 20 -16q0 -12 -13 -20.5
t-25.5 -19.5t-12.5 -30v-239h330v239q0 23 -25.5 38.5t-25.5 31.5t21 16h180q20 0 20 -16q0 -14 -25.5 -30t-25.5 -40v-543q0 -16 8 -26.5t17.5 -14.5t17.5 -11.5t8 -17.5q0 -16 -20 -16h-180z" />
    <glyph glyph-name="I" unicode="I" horiz-adv-x="346" 
d="M82 0q-9 0 -14.5 5t-5.5 11q0 12 13 20.5t26 19.5t13 30v543q0 15 -8 25t-18 14.5t-18 12t-8 18.5q0 6 5.5 11t14.5 5h182q20 0 20 -16q0 -17 -25.5 -32t-25.5 -38v-543q0 -25 25.5 -40.5t25.5 -29.5q0 -16 -20 -16h-182z" />
    <glyph glyph-name="J" unicode="J" horiz-adv-x="492" 
d="M191 -15q-81 0 -127 34.5t-46 85.5q0 32 19 52t51 20q60 0 70 -77q7 -66 56 -66q60 0 60 100v495q0 15 -8 25t-18 14.5t-18 12t-8 18.5q0 6 5.5 11t14.5 5h182q20 0 20 -16q0 -12 -13 -20.5t-25.5 -19.5t-12.5 -30v-446q0 -94 -52.5 -146t-149.5 -52z" />
    <glyph glyph-name="K" unicode="K" horiz-adv-x="688" 
d="M475 0q-24 0 -24 18q0 11 12 23t12 18q0 8 -9 17l-233 278v-268q0 -23 25.5 -38.5t25.5 -31.5t-20 -16h-182q-9 0 -14.5 5t-5.5 11q0 14 26 30t26 40v543q0 23 -26 38.5t-26 31.5q0 6 5.5 11t14.5 5h182q20 0 20 -16q0 -12 -13 -20.5t-25.5 -19.5t-12.5 -30v-245l233 220
q12 11 12 26q0 11 -6.5 34.5t-6.5 30.5q0 20 25 20h144q24 0 24 -18q0 -12 -18.5 -25.5t-55 -36.5t-63.5 -49l-185 -175l262 -311q18 -20 40 -37.5t32.5 -26.5t10.5 -19q0 -17 -20 -17h-186z" />
    <glyph glyph-name="L" unicode="L" horiz-adv-x="649" 
d="M82 0q-20 0 -20 16q0 12 13 20.5t26 19.5t13 30v543q0 22 -26 38.5t-26 31.5q0 16 20 16h187q20 0 20 -16q0 -15 -26 -31.5t-26 -38.5v-540q0 -21 9 -29.5t30 -8.5h156q32 0 50.5 9.5t32.5 34.5l58 103q11 18 26.5 14.5t15.5 -24.5v-138q0 -50 -52 -50h-481z" />
    <glyph glyph-name="M" unicode="M" horiz-adv-x="970" 
d="M462 -9q-24 0 -38 31l-247 539v-466q0 -20 13.5 -32.5t27 -22.5t13.5 -24q0 -6 -5.5 -11t-14.5 -5h-129q-20 0 -20 16q0 12 13 21t26 22.5t13 34.5v535q0 23 -25.5 38.5t-25.5 31.5t21 16h137q24 0 34 -22l238 -518l227 518q10 22 34 22h133q20 0 20 -16q0 -10 -8 -17.5
t-17.5 -12t-17.5 -15t-8 -25.5v-543q0 -23 25.5 -38.5t25.5 -31.5t-20 -16h-180q-21 0 -21 16q0 12 13 20.5t26 19.5t13 30v472l-238 -536q-14 -31 -38 -31z" />
    <glyph glyph-name="N" unicode="N" horiz-adv-x="785" 
d="M93 0q-19 0 -19 16q0 13 20.5 34.5t20.5 45.5v504q0 23 -33 52.5t-33 45.5q0 17 24 17h113q34 0 54 -25l382 -477v406q0 26 -26 45.5t-26 34.5q0 16 20 16h117q18 0 18 -14q0 -12 -20.5 -35.5t-20.5 -46.5v-598q0 -27 -22.5 -32t-39.5 17l-445 558v-468q0 -21 13.5 -34
t26.5 -23t13 -23q0 -16 -19 -16h-118z" />
    <glyph glyph-name="O" unicode="O" horiz-adv-x="811" 
d="M405 -15q-158 0 -255.5 109t-97.5 263t97.5 263.5t255.5 109.5q159 0 256.5 -109.5t97.5 -263.5t-97.5 -263t-256.5 -109zM198 336q0 -142 54 -220.5t153 -78.5q100 0 154.5 78.5t54.5 220.5v45q0 141 -54.5 219t-154.5 78q-99 0 -153 -78t-54 -219v-45z" />
    <glyph glyph-name="P" unicode="P" horiz-adv-x="655" 
d="M82 0q-9 0 -14.5 5t-5.5 11q0 14 26 30t26 40v543q0 23 -26 38.5t-26 31.5q0 6 5.5 11t14.5 5h209q165 0 249 -59t84 -159q0 -101 -76.5 -160t-194.5 -59q-56 0 -120 13v-205q0 -23 26 -38.5t26 -31.5t-20 -16h-183zM233 637v-297q52 -11 91 -11q78 0 124 38t46 117
q0 89 -59 135.5t-171 46.5q-31 0 -31 -29z" />
    <glyph glyph-name="Q" unicode="Q" horiz-adv-x="811" 
d="M648 -196q-87 0 -176.5 51t-141.5 137q-127 26 -202.5 129t-75.5 236q0 154 97.5 263.5t255.5 109.5q159 0 256.5 -109.5t97.5 -263.5q0 -130 -71.5 -231t-193.5 -131q50 -93 164 -156q18 -10 14 -22.5t-24 -12.5zM198 336q0 -142 54 -220.5t153 -78.5q100 0 154.5 78.5
t54.5 220.5v45q0 141 -54.5 219t-154.5 78q-99 0 -153 -78t-54 -219v-45z" />
    <glyph glyph-name="R" unicode="R" horiz-adv-x="687" 
d="M82 0q-20 0 -20 16q0 12 13 20.5t26 19.5t13 30v543q0 23 -26 38.5t-26 31.5q0 6 5.5 11t14.5 5h244q146 0 219.5 -51t73.5 -143q0 -79 -62.5 -128.5t-200.5 -57.5q34 -11 58 -38l171 -195q15 -17 32 -31t27 -20t16.5 -14t6.5 -19q0 -18 -26 -18h-88q-38 0 -68 38
l-252 295v-247q0 -23 25.5 -38.5t25.5 -31.5t-20 -16h-182zM233 381q27 -4 62 -4q194 0 194 139q0 150 -192 150h-31q-33 0 -33 -30v-255z" />
    <glyph glyph-name="S" unicode="S" horiz-adv-x="580" 
d="M295 -15q-95 0 -165.5 36t-70.5 97q0 33 20.5 52t52.5 19q61 0 81 -72q24 -81 106 -81q52 0 81 29t29 78q0 51 -37 89t-131 89q-94 52 -125 78q-69 59 -69 144q0 82 58.5 134.5t167.5 52.5q97 0 161.5 -40t64.5 -97q0 -29 -18 -44t-46 -15q-53 0 -74 65q-26 80 -107 80
q-51 0 -78.5 -28.5t-27.5 -73.5q0 -46 35 -80t129 -85q39 -21 59 -32t52 -35t48 -45t29 -53.5t13 -69.5q0 -84 -58.5 -138t-179.5 -54z" />
    <glyph glyph-name="T" unicode="T" horiz-adv-x="652" 
d="M235 0q-20 0 -20 16q0 10 8 17.5t17.5 12t17.5 15t8 25.5v582q-44 0 -66 -7.5t-48 -31.5l-92 -83q-13 -13 -27 -8.5t-10 22.5l24 117q5 26 13.5 34t34.5 8q37 0 110 -2.5t121 -1.5q45 0 117.5 2t112.5 2q26 0 35 -8t14 -34l23 -117q4 -18 -9.5 -22.5t-26.5 8.5l-92 83
q-27 24 -48.5 31.5t-65.5 7.5v-582q0 -23 25.5 -38.5t25.5 -31.5t-21 -16h-181z" />
    <glyph glyph-name="U" unicode="U" horiz-adv-x="751" 
d="M389 -15q-135 0 -213.5 69.5t-78.5 189.5v385q0 23 -25.5 38.5t-25.5 31.5t20 16h186q20 0 20 -16q0 -12 -13 -20.5t-25.5 -19.5t-12.5 -30v-371q0 -100 49.5 -150.5t141.5 -50.5q91 0 136 49.5t45 155.5v350q0 26 -26.5 47.5t-26.5 39.5q0 16 22 16h115q20 0 20 -15
q0 -11 -21 -35.5t-21 -51.5v-355q0 -273 -266 -273z" />
    <glyph glyph-name="V" unicode="V" horiz-adv-x="677" 
d="M343 -13q-34 0 -52 45l-230 583q-11 28 -35.5 51.5t-24.5 33.5q0 15 17 15h203q17 0 17 -15q0 -12 -23.5 -30.5t-23.5 -35.5q0 -10 7 -27l173 -459l163 455q8 21 8 33q0 18 -21.5 36t-21.5 28q0 15 17 15h138q18 0 18 -15q0 -10 -26.5 -32.5t-36.5 -50.5l-216 -585
q-17 -45 -50 -45z" />
    <glyph glyph-name="W" unicode="W" horiz-adv-x="949" 
d="M298 -12q-31 0 -42 35l-194 592q-9 26 -35 51.5t-26 34.5q0 14 18 14h195q18 0 18 -14q0 -9 -23.5 -29t-23.5 -39q0 -6 6 -26l126 -428l126 495q6 24 22.5 37t36.5 13q44 0 58 -50l134 -499l118 429q4 13 4 24q0 21 -21.5 40t-21.5 32q0 15 18 15h129q20 0 20 -15
q0 -9 -12 -17.5t-28 -25t-23 -41.5l-169 -593q-10 -35 -42 -35q-36 0 -45 35l-141 529l-138 -529q-9 -35 -44 -35z" />
    <glyph glyph-name="X" unicode="X" horiz-adv-x="651" 
d="M413 0q-18 0 -18 14q0 10 22.5 29.5t22.5 34.5q0 10 -11 27l-124 190l-126 -197q-11 -17 -11 -29q0 -13 22.5 -28.5t22.5 -27.5q0 -13 -17 -13h-165q-19 0 -19 14q0 10 14 19t37 25t38 38l171 251l-171 263q-16 25 -34 44.5t-26.5 28.5t-8.5 17q0 15 18 15h204
q17 0 17 -14q0 -11 -22.5 -30t-22.5 -33q0 -10 12 -28l109 -170l116 184q11 16 11 26t-16.5 26t-16.5 26q0 13 18 13h144q18 0 18 -14q0 -10 -14 -19.5t-36.5 -25.5t-37.5 -37l-154 -227l186 -287q16 -24 34.5 -43t27.5 -28t9 -18q0 -16 -19 -16h-204z" />
    <glyph glyph-name="Y" unicode="Y" horiz-adv-x="646" 
d="M237 0q-20 0 -20 16q0 12 13 20t26 19.5t13 30.5v253l-191 268q-16 23 -35.5 43.5t-28 30.5t-8.5 18q0 16 18 16h199q18 0 18 -14q0 -10 -22 -29t-22 -34q0 -12 11 -28l144 -202l142 215q9 14 9 26q0 13 -16 28t-16 24q0 14 18 14h132q19 0 19 -14q0 -8 -11.5 -17
t-32 -26t-35.5 -39l-173 -255v-278q0 -15 8 -25t17.5 -14t17.5 -12t8 -19q0 -16 -20 -16h-182z" />
    <glyph glyph-name="Z" unicode="Z" horiz-adv-x="634" 
d="M64 0q-17 0 -22 10t4 25l400 635h-190q-61 0 -94 -50l-64 -93q-6 -9 -15 -11t-16 3.5t-7 16.5v138q0 41 43 41h465q17 0 22.5 -10t-3.5 -25l-395 -635h194q60 0 95 52l59 87q10 14 23.5 11t13.5 -20v-134q0 -41 -41 -41h-472z" />
    <glyph glyph-name="bracketleft" unicode="[" horiz-adv-x="328" 
d="M110 -68q-17 0 -17 17v779q0 17 17 17h166q15 0 21.5 -10.5t0 -21t-21.5 -9.5l-130 8q70 -238 70 -373q0 -133 -70 -373l130 9q15 1 21.5 -10t0 -22t-21.5 -11h-166z" />
    <glyph glyph-name="backslash" unicode="\" horiz-adv-x="421" 
d="M351 -153q-18 0 -24 17l-294 831q-6 20 14 20h26q15 0 20 -15l295 -832q6 -21 -14 -21h-23z" />
    <glyph glyph-name="bracketright" unicode="]" horiz-adv-x="328" 
d="M52 -68q-15 0 -21.5 11t0 22t21.5 10l130 -9q-70 240 -70 373q0 135 70 373l-130 -8q-15 -1 -21.5 9.5t0 21t21.5 10.5h166q17 0 17 -17v-779q0 -17 -17 -17h-166z" />
    <glyph glyph-name="asciicircum" unicode="^" horiz-adv-x="462" 
d="M201 704q11 22 31 22t31 -22l151 -330q14 -31 -8 -43q-19 -9 -32 8l-3 6l-139 338l-139 -338q-10 -21 -31.5 -15.5t-17.5 30.5q1 7 4 14z" />
    <glyph glyph-name="underscore" unicode="_" horiz-adv-x="463" 
d="M38 -201q-19 0 -19 18v21q0 17 19 17h388q17 0 17 -17v-21q0 -18 -17 -18h-388z" />
    <glyph glyph-name="grave" unicode="`" horiz-adv-x="373" 
d="M131 606q-51 22 -51 60q0 22 14.5 37t37.5 15q30 0 70 -46l66 -74q15 -19 3.5 -34t-32.5 -7z" />
    <glyph glyph-name="a" unicode="a" horiz-adv-x="530" 
d="M180 -15q-63 0 -98 35.5t-35 93.5q0 160 285 186v102q0 79 -62 79q-33 0 -57 -20t-35.5 -44.5t-31 -44.5t-44.5 -20q-23 0 -37.5 13.5t-14.5 37.5q0 48 60 85t162 37q87 0 128 -34.5t41 -103.5v-316q0 -24 17 -24q4 0 12 1.5t11 1.5q11 0 11 -14q0 -20 -23.5 -35.5
t-56.5 -15.5q-66 0 -77 75q-57 -75 -155 -75zM161 139q0 -32 20 -54t59 -22q45 0 92 41v153q-171 -22 -171 -118z" />
    <glyph glyph-name="b" unicode="b" horiz-adv-x="576" 
d="M290 -15q-64 0 -122 39q-17 13 -32 -3l-23 -26q-11 -13 -22 -9.5t-11 19.5v579q0 14 -9 22t-19.5 11t-19.5 9.5t-9 16.5q0 12 18 21l112 60q16 8 26 3.5t10 -18.5v-244q70 50 148 50q93 0 143 -61t50 -183q0 -141 -67 -213.5t-173 -72.5zM189 144q0 -55 27.5 -83.5
t73.5 -28.5q122 0 122 208q0 110 -34 156.5t-101 46.5q-45 0 -88 -21v-278z" />
    <glyph glyph-name="c" unicode="c" horiz-adv-x="521" 
d="M283 -15q-103 0 -170.5 72.5t-67.5 193.5q0 123 69 198.5t178 75.5q78 0 133.5 -38t55.5 -96q0 -32 -17 -53t-49 -21q-30 0 -48 20t-18 52q0 8 1.5 23t1.5 20q0 46 -63 46q-67 0 -106.5 -46t-39.5 -137q0 -100 49 -158t136 -58q40 0 68.5 12.5t44 25t22.5 12.5
q13 0 13 -18q0 -42 -56 -84t-137 -42z" />
    <glyph glyph-name="d" unicode="d" horiz-adv-x="590" 
d="M247 -15q-88 0 -144.5 67t-56.5 182q0 121 67.5 201t179.5 80q54 0 97 -21v94q0 13 -9 21.5t-19 11.5t-19 9.5t-9 17.5q0 14 17 22l112 55q17 8 27 4t10 -19v-595q0 -20 27.5 -31.5t27.5 -26.5q0 -14 -16 -21l-113 -47q-16 -7 -26 -2t-10 21v40q-49 -63 -143 -63z
M160 276q0 -107 39 -161t102 -54q43 0 89 30v279q0 98 -94 98q-65 0 -100.5 -48.5t-35.5 -143.5z" />
    <glyph glyph-name="e" unicode="e" horiz-adv-x="536" 
d="M290 -15q-107 0 -176 74t-69 199q0 120 66 193.5t172 73.5q91 0 147 -52.5t56 -123.5q0 -31 -12 -44t-36 -13h-291q2 -103 49.5 -160t127.5 -57q43 0 76 16.5t52 32.5t28 16q11 0 11 -16q0 -12 -5 -24q-19 -50 -72 -82.5t-124 -32.5zM148 340h199q30 0 30 27q0 47 -25 79
t-77 32q-54 0 -88.5 -36t-38.5 -102z" />
    <glyph glyph-name="f" unicode="f" horiz-adv-x="362" 
d="M81 0q-9 0 -14.5 5t-5.5 12q0 13 23.5 26t23.5 26v393h-66q-19 0 -19 17v15q0 17 19 17h63l-8 53q-12 76 25.5 121t100.5 45q52 0 90 -31t38 -72q0 -25 -14.5 -40.5t-40.5 -15.5q-25 0 -39 16.5t-17.5 37t-13.5 37t-28 16.5q-24 0 -32.5 -23t7.5 -63l35 -81h125
q18 0 18 -17v-15q0 -17 -18 -17h-116v-393q0 -13 23 -26t23 -26q0 -7 -6 -12t-16 -5h-160z" />
    <glyph glyph-name="g" unicode="g" horiz-adv-x="535" 
d="M243 -177q-101 0 -155 31t-54 78q0 35 31.5 66t98.5 51l-13 2q-42 6 -64.5 28t-22.5 49q0 26 21.5 47t58.5 30q-96 48 -96 140q0 74 62.5 120t154.5 46h223q14 0 15.5 -11t-10.5 -17l-55 -26q-14 -6 -4 -21q33 -38 33 -91q0 -72 -60.5 -118t-146.5 -46q-21 0 -55 4
q-22 3 -33.5 -8.5t-5 -26t28.5 -17.5l159 -23q78 -11 113.5 -46.5t35.5 -85.5q0 -72 -68.5 -113.5t-191.5 -41.5zM143 -52q0 -40 30.5 -62.5t91.5 -22.5q62 0 97 26t35 67q0 60 -92 73l-91 13q-71 -30 -71 -94zM163 340q0 -113 95 -113q94 0 94 113v15q0 52 -24.5 81.5
t-69.5 29.5q-46 0 -70.5 -29.5t-24.5 -81.5v-15z" />
    <glyph glyph-name="h" unicode="h" horiz-adv-x="610" 
d="M64 0q-20 0 -20 17q0 13 23 26t23 26v523q0 12 -8.5 19.5t-19 11t-19 10t-8.5 15.5q0 12 16 20l113 57q13 7 24.5 2.5t11.5 -20.5v-248q116 66 207 66q116 0 116 -136v-320q0 -14 23 -26.5t23 -25.5q0 -7 -5.5 -12t-14.5 -5h-161q-9 0 -14.5 5t-5.5 12q0 13 23 26t23 26
v269q0 59 -20 84t-67 25q-54 0 -127 -32v-346q0 -13 22 -25.5t22 -26.5q0 -17 -20 -17h-160z" />
    <glyph glyph-name="i" unicode="i" horiz-adv-x="296" 
d="M71 0q-9 0 -14.5 5t-5.5 12q0 13 23.5 26t23.5 26v319q0 12 -9 19.5t-19 10.5t-19 9.5t-9 16.5q0 12 16 20l112 56q16 8 26.5 3t10.5 -21v-433q0 -13 23 -26t23 -26q0 -7 -6.5 -12t-15.5 -5h-160zM77 640q0 28 20.5 48t49.5 20t49.5 -20t20.5 -48t-20.5 -47.5
t-49.5 -19.5t-49.5 19.5t-20.5 47.5z" />
    <glyph glyph-name="j" unicode="j" horiz-adv-x="282" 
d="M26 -214q-56 0 -90 26t-34 64q0 25 16.5 42.5t44.5 17.5q25 0 41.5 -16t22.5 -34.5t15.5 -34.5t22.5 -16q28 0 28 78v475q0 12 -8.5 19.5t-19 10.5t-19 9.5t-8.5 16.5q0 13 16 20l111 56q17 8 27 2.5t10 -20.5v-503q0 -99 -48 -156t-128 -57zM62 640q0 28 20.5 48
t49.5 20t49.5 -20t20.5 -48t-20.5 -47.5t-49.5 -19.5t-49.5 19.5t-20.5 47.5z" />
    <glyph glyph-name="k" unicode="k" horiz-adv-x="551" 
d="M64 0q-20 0 -20 17q0 13 23 25.5t23 26.5v524q0 12 -8.5 19.5t-19 11t-19 10t-8.5 15.5q0 12 16 20l113 56q14 7 25 3t11 -20v-410l131 108q19 16 17 33l-5 52q-1 20 16 20h143q20 0 20 -17q0 -14 -16 -23l-100 -62l-111 -94l175 -225q13 -17 32.5 -31t31 -22.5
t11.5 -18.5q0 -18 -21 -18h-166q-22 0 -22 19q0 9 10.5 20t10.5 19q0 6 -9 19l-148 193v-201q0 -14 22 -26.5t22 -25.5q0 -17 -20 -17h-160z" />
    <glyph glyph-name="l" unicode="l" horiz-adv-x="289" 
d="M64 0q-20 0 -20 17q0 13 23 25.5t23 26.5v521q0 20 -27.5 33t-27.5 26t16 20l110 56q14 8 26 3.5t12 -20.5v-639q0 -13 22.5 -25.5t22.5 -26.5q0 -17 -20 -17h-160z" />
    <glyph glyph-name="m" unicode="m" horiz-adv-x="907" 
d="M685 0q-9 0 -14.5 5t-5.5 12q0 13 23.5 25.5t23.5 23.5v279q0 61 -21.5 86.5t-71.5 25.5q-53 0 -110 -28q4 -20 4 -51v-312q0 -10 23 -23t23 -26q0 -7 -5.5 -12t-14.5 -5h-160q-10 0 -16 5t-6 12q0 13 23.5 25.5t23.5 23.5v279q0 61 -20.5 86.5t-69.5 25.5
q-48 0 -107 -28v-363q0 -9 11 -16t22.5 -14.5t11.5 -18.5q0 -17 -21 -17h-160q-20 0 -20 17q0 13 23 25.5t23 23.5v321q0 12 -8.5 19.5t-19 11t-19 10t-8.5 15.5q0 13 18 22l110 55q16 8 26.5 3t10.5 -21v-32q96 55 179 55q84 0 112 -60q95 60 193 60q65 0 97.5 -34.5
t32.5 -112.5v-312q0 -10 23 -23t23 -26q0 -7 -6 -12t-15 -5h-161z" />
    <glyph glyph-name="n" unicode="n" horiz-adv-x="617" 
d="M396 0q-20 0 -20 17q0 13 23 25t23 24v275q0 58 -20 82t-68 24q-59 0 -127 -31v-350q0 -10 23 -23t23 -26q0 -17 -21 -17h-161q-20 0 -20 17q0 13 23 25.5t23 23.5v321q0 12 -8.5 20.5t-19 11.5t-19 9t-8.5 15q0 12 16 20l112 57q14 8 25.5 3t11.5 -21v-44q106 67 203 67
q121 0 121 -131v-328q0 -11 22.5 -23.5t22.5 -25.5q0 -17 -20 -17h-160z" />
    <glyph glyph-name="o" unicode="o" horiz-adv-x="597" 
d="M298 -15q-110 0 -182 75t-72 195q0 121 72 195.5t182 74.5t182 -74.5t72 -195.5q0 -120 -72 -195t-182 -75zM170 224q0 -91 33.5 -140.5t94.5 -49.5t94.5 49.5t33.5 141.5v61q0 191 -128 191t-128 -191v-62z" />
    <glyph glyph-name="p" unicode="p" horiz-adv-x="582" 
d="M66 -174q-21 0 -21 18q0 12 23.5 25t23.5 27v490q0 17 -14 25.5t-27.5 14.5t-13.5 17t16 20l112 57q16 8 26 2.5t10 -20.5v-31q75 54 153 54q85 0 133.5 -62t48.5 -175q0 -133 -64.5 -212t-169.5 -79q-53 0 -101 26v-127q0 -14 22.5 -26.5t22.5 -25.5q0 -18 -20 -18h-160
zM201 158q0 -54 24 -83.5t68 -29.5q60 0 94.5 54t34.5 153q0 199 -134 199q-44 0 -87 -25v-268z" />
    <glyph glyph-name="q" unicode="q" horiz-adv-x="568" 
d="M355 -174q-9 0 -15 5.5t-6 12.5q0 12 23.5 24.5t23.5 27.5v156q-57 -59 -141 -59q-87 0 -140.5 66.5t-53.5 179.5q0 131 70 208.5t172 77.5q65 0 117 -36q17 -12 31 2l25 26q11 10 20 7.5t9 -16.5v-612q0 -14 23 -26.5t23 -25.5q0 -18 -21 -18h-160zM160 270
q0 -199 140 -199q41 0 81 25v274q0 108 -93 108q-60 0 -94 -50.5t-34 -157.5z" />
    <glyph glyph-name="r" unicode="r" horiz-adv-x="436" 
d="M71 0q-20 0 -20 17q0 13 23 25.5t23 23.5v321q0 13 -8.5 21.5t-18.5 11.5t-18.5 9t-8.5 15q0 14 15 21l110 55q14 8 26.5 3.5t12.5 -20.5v-64q23 40 59.5 63t76.5 23q37 0 58.5 -18.5t21.5 -48.5q0 -27 -17 -42.5t-43 -15.5q-22 0 -49 16.5t-47 16.5q-28 0 -44 -19.5
t-16 -54.5v-293q0 -9 11 -16t22.5 -14.5t11.5 -18.5q0 -17 -21 -17h-160z" />
    <glyph glyph-name="s" unicode="s" horiz-adv-x="458" 
d="M233 -15q-73 0 -128.5 30.5t-55.5 80.5q0 23 13 37t35 14t37 -18t23 -39.5t30 -39.5t56 -18q36 0 57 19t21 52t-26.5 59.5t-94.5 53.5q-78 31 -110.5 70.5t-32.5 94.5q0 69 47 106.5t123 37.5q68 0 120 -28t52 -75q0 -21 -11.5 -33.5t-30.5 -12.5q-20 0 -36.5 16t-27 35
t-31.5 35t-49 16q-33 0 -52 -17.5t-19 -47.5q0 -29 23.5 -52t88.5 -49q88 -34 121.5 -77.5t33.5 -95.5q0 -74 -48 -114t-128 -40z" />
    <glyph glyph-name="t" unicode="t" horiz-adv-x="393" 
d="M224 -15q-121 0 -121 126v329q0 28 -29 28h-34q-20 0 -25 13.5t11 26.5l151 123q13 11 24 6.5t11 -21.5v-105h153q18 0 18 -17v-15q0 -17 -18 -17h-153v-350q0 -34 15 -48t50 -14q25 0 49.5 5.5t27.5 5.5q14 0 14 -12q0 -22 -45.5 -43t-98.5 -21z" />
    <glyph glyph-name="u" unicode="u" horiz-adv-x="608" 
d="M234 -15q-67 0 -104.5 38t-37.5 115v243q0 13 -9 21.5t-19.5 11.5t-19.5 9t-9 16q0 13 16 21l114 60q15 8 25.5 3t10.5 -20v-340q0 -58 21 -83t71 -25q60 0 113 36v291q0 13 -9 21.5t-19 12t-19 10t-9 16.5q0 12 17 21l113 58q16 8 25.5 3t9.5 -20v-388q0 -13 8.5 -21
t19.5 -11.5t19.5 -9.5t8.5 -16q0 -13 -16 -20l-113 -50q-16 -7 -26 -2t-10 21v37q-75 -59 -172 -59z" />
    <glyph glyph-name="v" unicode="v" horiz-adv-x="526" 
d="M263 -15q-29 0 -42 31l-156 399q-11 27 -35 51t-24 32q0 13 17 13h185q15 0 15 -12q0 -8 -22 -27.5t-22 -38.5q0 -11 6 -26l104 -294l109 293q6 17 6 28q0 18 -19.5 38.5t-19.5 27.5q0 11 15 11h126q14 0 14 -12q0 -9 -24 -32.5t-34 -50.5l-156 -400q-13 -31 -43 -31z
" />
    <glyph glyph-name="w" unicode="w" horiz-adv-x="776" 
d="M238 -15q-28 0 -39 32l-134 398q-9 27 -23.5 44t-24.5 24.5t-10 14.5q0 13 16 13h179q15 0 15 -12q0 -8 -21.5 -27.5t-21.5 -38.5q0 -11 5 -26l86 -274l101 347q12 42 49 42t51 -42l108 -344l81 271q5 17 5 27q0 16 -19.5 37.5t-19.5 27.5q0 12 15 12h116q15 0 15 -12
q0 -7 -10 -15t-25 -25t-23 -43l-122 -399q-9 -32 -40 -32q-30 0 -41 32l-118 380l-111 -380q-9 -32 -39 -32z" />
    <glyph glyph-name="x" unicode="x" horiz-adv-x="525" 
d="M291 0q-15 0 -15 12q0 9 22.5 26t22.5 34q0 12 -11 29l-68 97l-70 -97q-21 -30 -21 -42q0 -11 15.5 -24t15.5 -23q0 -12 -16 -12h-133q-16 0 -16 13q0 8 12 16.5t33.5 25t37.5 37.5l113 148l-120 169q-17 24 -37 43.5t-29.5 29t-9.5 16.5q0 13 18 13h198q16 0 16 -13
q0 -8 -11 -16.5t-22.5 -19t-11.5 -24.5q0 -11 11 -28l61 -92l76 97q20 26 20 36t-16.5 25.5t-16.5 22.5q0 12 15 12h129q15 0 15 -13q0 -7 -11 -15.5t-32.5 -25.5t-38.5 -38l-113 -142l129 -175q18 -24 37.5 -43.5l28.5 -28.5t9 -17q0 -13 -17 -13h-199z" />
    <glyph glyph-name="y" unicode="y" horiz-adv-x="525" 
d="M103 -177q-39 0 -65.5 19.5t-26.5 52.5q0 26 17.5 44t46.5 18q21 0 45.5 -14t40.5 -14q19 0 33 20t43 92l-170 375q-11 24 -26.5 40.5t-25 25t-9.5 16.5q0 13 16 13h193q15 0 15 -12q0 -9 -23.5 -28.5t-23.5 -35.5q0 -9 8 -28l103 -249l102 249q6 15 6 26
q0 17 -19.5 38.5t-19.5 28.5q0 11 15 11h127q15 0 15 -12q0 -8 -22.5 -29t-33.5 -47l-195 -446q-35 -81 -75.5 -117.5t-90.5 -36.5z" />
    <glyph glyph-name="z" unicode="z" horiz-adv-x="486" 
d="M65 0q-17 0 -22 10t4 25l262 435h-85q-34 0 -60.5 -18.5t-39 -40t-27 -40t-26.5 -18.5q-19 0 -19 22v106q0 30 30 30h328q18 0 23 -10.5t-4 -24.5l-260 -436h104q33 0 58.5 19t38 41.5t27 41.5t26.5 19q18 0 18 -21v-114q0 -26 -28 -26h-348z" />
    <glyph glyph-name="braceleft" unicode="{" horiz-adv-x="320" 
d="M268 -72q-65 0 -118 63.5t-53 140.5v119q0 21 -17 34l-43 39q-15 13 0 24l42 33q18 12 18 33v132q0 79 53 142.5t118 63.5q18 0 18 -11q0 -5 -12.5 -14t-28 -21t-28 -45t-12.5 -80v-130q0 -20 -17 -33l-65 -54l66 -61q16 -13 16 -34v-171q0 -47 12.5 -80t28 -45t28 -21
t12.5 -15q0 -9 -18 -9z" />
    <glyph glyph-name="bar" unicode="|" horiz-adv-x="231" 
d="M110 -202q-17 0 -17 18v981q0 18 17 18h11q17 0 17 -18v-981q0 -18 -17 -18h-11z" />
    <glyph glyph-name="braceright" unicode="}" horiz-adv-x="320" 
d="M52 -72q-18 0 -18 9q0 6 12.5 15t28 21t28 45t12.5 80v171q0 21 16 34l66 61l-65 54q-17 13 -17 33v130q0 47 -12.5 80t-28 45t-28 21t-12.5 14q0 11 18 11q65 0 118 -63.5t53 -142.5v-132q0 -21 18 -33l42 -33q15 -11 0 -24l-43 -39q-17 -13 -17 -34v-119
q0 -77 -53 -140.5t-118 -63.5z" />
    <glyph glyph-name="asciitilde" unicode="~" horiz-adv-x="544" 
d="M358 209q-52 0 -197 56l-72 -41q-11 -7 -18 -0.5t0 18.5q45 89 117 89q47 0 196 -56l73 41q11 5 17.5 -0.5t1.5 -17.5q-44 -89 -118 -89z" />
    <glyph glyph-name="uni00A0" unicode="&#xa0;" horiz-adv-x="259" 
 />
    <glyph glyph-name="exclamdown" unicode="&#xa1;" horiz-adv-x="287" 
d="M158 499q18 -103 38 -248.5t20 -182.5t-19 -60.5t-54 -23.5t-53.5 23.5t-18.5 60.5t20 182.5t38 248.5q1 10 7.5 14t13 0t8.5 -14zM67 653q0 32 22.5 54t54.5 22t54 -22t22 -54t-22 -54.5t-54 -22.5t-54.5 22.5t-22.5 54.5z" />
    <glyph glyph-name="cent" unicode="&#xa2;" horiz-adv-x="487" 
d="M368 -82q-27 -10 -38 24l-17 51q-24 -6 -52 -6q-88 0 -146 64.5t-58 171.5q0 72 26.5 126.5t73.5 84.5l-14 36q-6 13 -2.5 24t16.5 15q26 10 38 -24l9 -28q30 9 64 9q67 0 114.5 -34t47.5 -85q0 -28 -15 -47t-42 -19q-25 0 -40.5 17.5t-15.5 46.5q0 7 1.5 21t1.5 18
q0 40 -54 40q-27 0 -48 -9l57 -194l63 -147q26 7 48 24t28 17q12 0 12 -16q0 -21 -18 -45t-48 -41l22 -57q6 -12 2 -23t-16 -15zM141 262q0 -86 39.5 -137.5t109.5 -54.5l-39 139l-75 176q-35 -43 -35 -123z" />
    <glyph glyph-name="sterling" unicode="&#xa3;" horiz-adv-x="597" 
d="M369 -12q-79 0 -161 67q-17 13 -34 9t-25 -24q-19 -40 -53 -40q-24 0 -39 15.5t-15 40.5q0 32 23 49t65 17q79 0 79 144q0 27 -9 63l-123 -5q-19 -1 -26.5 12t0.5 26.5t27 12.5l110 -6q-2 5 -9 23.5t-9.5 26.5t-6.5 22t-5.5 26t-1.5 24q0 71 56.5 118.5t141.5 47.5
q78 0 126.5 -32.5t48.5 -92.5q0 -30 -14.5 -47.5t-38.5 -17.5q-54 0 -54 62q0 48 -14.5 69.5t-50.5 21.5q-94 0 -94 -83q0 -24 7 -51.5t18.5 -62.5t16.5 -55l122 3q19 0 26.5 -13t-0.5 -26.5t-27 -12.5l-113 7q2 -20 2 -32q0 -65 -23.5 -103t-77.5 -71q31 11 95.5 -15.5
t99.5 -26.5q69 0 69 42q0 10 -14.5 34t-14.5 42q0 20 12.5 33t32.5 13q22 0 36 -17.5t14 -48.5q0 -72 -50.5 -130t-124.5 -58z" />
    <glyph glyph-name="currency" unicode="&#xa4;" horiz-adv-x="574" 
d="M288 120q-64 0 -116 39l-55 -63q-14 -16 -31.5 -13t-21 17.5t10.5 31.5l64 60q-42 53 -42 120t42 120l-64 59q-23 22 -6 40q16 18 37 5l11 -9l55 -63q52 39 116 39t116 -38l54 62q19 22 41 10q20 -11 11 -32q-3 -7 -11 -14l-62 -58q43 -53 43 -121t-43 -121l62 -59
q23 -21 8 -39t-36 -7q-8 4 -13 10l-54 63q-51 -39 -116 -39zM141 312q0 -62 42.5 -105t104.5 -43t104.5 43t42.5 105q0 61 -42.5 103.5t-104.5 42.5t-104.5 -42.5t-42.5 -103.5z" />
    <glyph glyph-name="yen" unicode="&#xa5;" horiz-adv-x="607" 
d="M218 0q-20 0 -20 16q0 10 8 17t17 11.5t17 15t8 25.5v88l-123 -4q-18 -1 -26 12.5t0 27t26 12.5l123 -4v42l-123 -4q-18 0 -26 13.5t0 26.5t26 13l123 -5l-144 233q-14 22 -28.5 38.5t-22.5 23.5t-13.5 14.5t-5.5 14.5q0 17 18 17h190q19 0 19 -15q0 -10 -21.5 -26.5
t-21.5 -33.5q0 -12 10 -29l102 -165l93 171q8 16 8 29q0 15 -13.5 31.5t-13.5 23.5q0 14 19 14h129q18 0 18 -15q0 -9 -12 -16.5t-31.5 -23.5t-33.5 -40l-126 -217v-29l123 5q19 0 26.5 -13t0 -26.5t-26.5 -13.5l-123 4v-42l123 4q19 1 27 -12.5t0 -27t-27 -12.5l-123 4v-88
q0 -19 12.5 -30t24.5 -19t12 -20q0 -16 -19 -16h-179z" />
    <glyph glyph-name="brokenbar" unicode="&#xa6;" horiz-adv-x="231" 
d="M109 -201q-17 0 -17 18v405q0 17 17 17h14q18 0 18 -17v-405q0 -18 -18 -18h-14zM92 391v406q0 18 17 18h14q18 0 18 -18v-406q0 -17 -18 -17h-14q-17 0 -17 17z" />
    <glyph glyph-name="section" unicode="&#xa7;" horiz-adv-x="555" 
d="M280 -214q-78 0 -136.5 35t-58.5 101q0 30 14.5 47t41.5 17q59 0 59 -71q0 -41 17.5 -63.5t63.5 -22.5q45 0 70 21t25 58q0 40 -32 68.5t-113 72.5q-39 22 -66 39.5t-57 44t-45.5 57.5t-15.5 66q0 105 131 160q-88 63 -88 155q0 75 52 116.5t133 41.5q78 0 136.5 -35
t58.5 -100q0 -63 -56 -63q-58 0 -58 69q0 42 -18 64t-69 22q-41 0 -65.5 -20t-24.5 -54q0 -43 35.5 -74t108.5 -71q38 -21 66 -39t57.5 -44t45.5 -57.5t16 -66.5q0 -105 -130 -161q87 -63 87 -154q0 -76 -51.5 -117.5t-133.5 -41.5zM146 299q0 -74 136 -144q36 -18 61 -33
q67 43 67 98q-1 70 -137 142q-40 20 -60 32q-67 -40 -67 -95z" />
    <glyph glyph-name="dieresis" unicode="&#xa8;" horiz-adv-x="489" 
d="M141 586q-30 0 -51 20.5t-21 50.5q0 29 21 49.5t51 20.5q29 0 50 -20.5t21 -49.5q0 -30 -21 -50.5t-50 -20.5zM276 657q0 29 21 49.5t50 20.5t50 -20.5t21 -49.5q0 -30 -21 -50.5t-50 -20.5t-50 20.5t-21 50.5z" />
    <glyph glyph-name="copyright" unicode="&#xa9;" horiz-adv-x="780" 
d="M390 13q-139 0 -234 95.5t-95 230.5t95.5 230.5t233.5 95.5t233.5 -95.5t95.5 -230.5t-95 -230.5t-234 -95.5zM96 339q0 -122 86 -208.5t208 -86.5t208 86.5t86 208.5t-86 208.5t-208 86.5t-208 -86.5t-86 -208.5zM191 332q0 99 62 160.5t153 61.5q66 0 109.5 -30.5
t43.5 -75.5q0 -25 -14.5 -42.5t-40.5 -17.5t-42.5 17.5t-16.5 46.5q0 30 14 51q-27 12 -60 12q-55 0 -87.5 -36t-32.5 -106q0 -78 41 -123t115 -45q45 0 78 12.5t34 12.5q10 0 10 -10q0 -32 -44.5 -64t-115.5 -32q-88 0 -147 56t-59 152z" />
    <glyph glyph-name="ordfeminine" unicode="&#xaa;" horiz-adv-x="499" 
d="M172 342q-40 0 -66 23t-26 58q0 116 213 151v66q0 48 -44 48q-26 0 -43 -15.5t-23.5 -34.5t-22 -34.5t-38.5 -15.5q-20 0 -31 10.5t-11 29.5q0 40 51 69.5t128 29.5q72 0 103.5 -30.5t31.5 -99.5v-154q0 -46 16 -46q3 0 8 1t7 1q7 0 7 -10q0 -20 -17.5 -33.5t-46.5 -13.5
q-60 0 -72 56q-52 -56 -124 -56zM68 258q0 -10 7 -17.5t18 -7.5h325q10 0 16.5 7t6.5 18q0 10 -6.5 16.5t-16.5 6.5h-325q-11 0 -18 -6.5t-7 -16.5zM181 460q0 -22 16.5 -35t42.5 -13q32 0 53 19v109q-112 -19 -112 -80z" />
    <glyph glyph-name="guillemotleft" unicode="&#xab;" horiz-adv-x="582" 
d="M68 241q-33 31 0 61l203 181q7 6 12.5 2t1.5 -12l-85 -160q-20 -41 0 -82l85 -160q4 -8 -1.5 -12t-12.5 2zM308 241q-33 31 0 61l203 181q7 6 12.5 2t1.5 -12l-85 -160q-20 -41 0 -82l85 -160q4 -8 -1.5 -12t-12.5 2z" />
    <glyph glyph-name="logicalnot" unicode="&#xac;" horiz-adv-x="507" 
d="M385 328q0 14 -14 14h-284q-15 0 -21.5 11t0 22t21.5 11h313q30 0 30 -30v-195q0 -15 -11 -21.5t-22.5 0t-11.5 21.5v167z" />
    <glyph glyph-name="uni00AD" unicode="&#xad;" horiz-adv-x="376" 
d="M76 264q-17 0 -17 17v22q0 18 17 18h223q18 0 18 -18v-22q0 -17 -18 -17h-223z" />
    <glyph glyph-name="registered" unicode="&#xae;" horiz-adv-x="483" 
d="M241 373q-77 0 -128.5 49t-51.5 128t51.5 128t128.5 49t129 -49t52 -128t-52 -128t-129 -49zM90 550q0 -68 43 -110.5t108 -42.5q66 0 109 41.5t43 111.5q0 68 -43.5 110.5t-108.5 42.5t-108 -42.5t-43 -110.5zM153 459q0 3 8 8t8 13v141q0 8 -8 12.5t-8 8.5q0 5 7 5h84
q88 0 88 -51q0 -48 -72 -49l60 -67q4 -5 10 -9.5t9 -7t3 -5.5q0 -5 -7 -5h-36q-14 0 -25 14l-59 74v-61q0 -7 8.5 -12.5t8.5 -8.5q0 -6 -8 -6h-64q-7 0 -7 6zM215 558h10q31 0 44 7.5t13 25.5q0 38 -43 38q-15 0 -19.5 -3t-4.5 -11v-57z" />
    <glyph glyph-name="macron" unicode="&#xaf;" horiz-adv-x="398" 
d="M59 603q-20 0 -28 14.5t0 29t28 14.5h280q19 0 26.5 -14.5t0 -29t-26.5 -14.5h-280z" />
    <glyph glyph-name="degree" unicode="&#xb0;" horiz-adv-x="313" 
d="M157 593q-46 0 -80.5 32.5t-34.5 79.5t34.5 79.5t80.5 32.5t80.5 -32.5t34.5 -79.5t-34.5 -79.5t-80.5 -32.5zM84 705q0 -31 21.5 -53.5t51.5 -22.5t51.5 22.5t21.5 53.5t-21.5 53t-51.5 22t-51.5 -22t-21.5 -53z" />
    <glyph glyph-name="plusminus" unicode="&#xb1;" horiz-adv-x="512" 
d="M228 130l11 161l-156 -12q-19 -1 -27 13.5t0 29t27 13.5l156 -11l-11 160q-1 18 13.5 26t28.5 0t13 -26l-10 -160l157 11q18 1 26 -13.5t0 -29t-26 -13.5l-157 12l10 -161q1 -19 -13 -27t-28.5 0t-13.5 27zM81 0q-15 0 -21.5 11.5t0 23t21.5 11.5h350q15 0 21.5 -11.5
t0 -23t-21.5 -11.5h-350z" />
    <glyph glyph-name="uni00B2" unicode="&#xb2;" horiz-adv-x="380" 
d="M56 400q-13 0 -16 10.5t9 20.5q95 79 136.5 138.5t41.5 127.5q0 74 -49 74q-43 0 -43 -41q0 -12 8 -28t8 -26q0 -18 -13.5 -31t-36.5 -13q-26 0 -41 16.5t-15 42.5q0 47 40 80t102 33q66 0 103.5 -32.5t37.5 -84.5q0 -50 -43.5 -102.5t-146.5 -125.5h102q27 0 37 19
l25 44q7 10 15 8t8 -12v-104q0 -14 -17 -14h-252z" />
    <glyph glyph-name="uni00B3" unicode="&#xb3;" horiz-adv-x="374" 
d="M153 617q43 12 58.5 31t15.5 55q0 71 -53 71q-20 0 -32.5 -10t-12.5 -22q0 -7 10.5 -21.5t10.5 -28.5q0 -18 -13 -29.5t-34 -11.5q-26 0 -40 15.5t-14 41.5q0 44 38.5 70t96.5 26q57 0 95 -26t38 -72q0 -70 -83 -90q44 -9 70 -35.5t26 -66.5q0 -55 -43 -89t-115 -34
q-62 0 -94.5 24.5t-32.5 58.5q0 23 13.5 36t35.5 13q44 0 44 -48q0 -25 8.5 -37.5t32.5 -12.5q28 0 42.5 22t14.5 58q0 37 -18 58.5t-62 27.5q-15 1 -15.5 12t12.5 14z" />
    <glyph glyph-name="acute" unicode="&#xb4;" horiz-adv-x="373" 
d="M141 557q-21 -8 -32.5 7t3.5 34l66 74q40 46 70 46q23 0 37.5 -15t14.5 -37q0 -38 -51 -60z" />
    <glyph glyph-name="uni00B5" unicode="&#xb5;" horiz-adv-x="634" 
d="M129 -183q-28 0 -44 19t-16 47q0 17 10.5 47t20.5 86t10 136v229q0 13 -9 21.5t-19.5 11.5t-19.5 9t-9 16q0 13 16 21l114 60q15 8 25.5 3t10.5 -20v-340q0 -58 21 -83t71 -25q60 0 113 36v291q0 13 -9 21.5t-19 12t-19 10t-9 16.5q0 12 17 21l113 58q16 8 25.5 3
t9.5 -20v-388q0 -13 8.5 -21t19.5 -11.5t19.5 -9.5t8.5 -16q0 -13 -16 -20l-113 -50q-16 -7 -26 -2t-10 21v37q-75 -59 -172 -59q-60 0 -95 29q6 -35 18.5 -74.5t12.5 -56.5q0 -29 -15.5 -47.5t-43.5 -18.5z" />
    <glyph glyph-name="paragraph" unicode="&#xb6;" horiz-adv-x="608" 
d="M265 -202q-18 0 -18 18v506q-100 0 -158.5 58t-58.5 138t58.5 138.5t158.5 58.5h287q16 0 19.5 -11.5t-8.5 -22.5l-35 -28q-18 -15 -18 -41v-796q0 -18 -17 -18h-40q-17 0 -17 18v826h-96v-826q0 -18 -18 -18h-39z" />
    <glyph glyph-name="periodcentered" unicode="&#xb7;" horiz-adv-x="281" 
d="M140 217q-32 0 -54 22t-22 54t22 54.5t54 22.5t54.5 -22.5t22.5 -54.5t-22.5 -54t-54.5 -22z" />
    <glyph glyph-name="cedilla" unicode="&#xb8;" horiz-adv-x="297" 
d="M135 7h43l-45 -57q60 0 93 -20.5t33 -54.5q0 -38 -39 -63.5t-106 -25.5q-46 0 -72 15.5t-26 38.5q0 18 12 29.5t30 11.5q15 0 45 -14t52 -14q42 0 42 32q0 24 -33 24q-8 0 -25 -2t-25 -2q-35 0 -35 26q0 13 19 36z" />
    <glyph glyph-name="uni00B9" unicode="&#xb9;" horiz-adv-x="272" 
d="M69 399q-17 0 -17 12q0 9 22 24t22 32v237l-50 13q-9 2 -11.5 7t0.5 10.5t10 9.5l117 54q10 4 17.5 0.5t7.5 -11.5v-320q0 -17 22 -31.5t22 -24.5q0 -12 -17 -12h-145z" />
    <glyph glyph-name="ordmasculine" unicode="&#xba;" horiz-adv-x="522" 
d="M262 348q-82 0 -137 54t-55 137q0 82 55 135t137 53t136 -52.5t54 -135.5t-54.5 -137t-135.5 -54zM75 258q0 -10 7 -17.5t17 -7.5h325q10 0 17 7t7 18q0 10 -7 16.5t-17 6.5h-325q-10 0 -17 -6.5t-7 -16.5zM172 520q0 -64 24 -97.5t66 -33.5q41 0 64.5 33.5t23.5 97.5v36
q0 66 -23.5 98.5t-64.5 32.5q-42 0 -66 -33t-24 -98v-36z" />
    <glyph glyph-name="guillemotright" unicode="&#xbb;" horiz-adv-x="582" 
d="M311 61q-7 -6 -12.5 -2t-1.5 12l85 160q20 41 0 82l-85 160q-4 8 1.5 12t12.5 -2l203 -181q33 -30 0 -61zM57 71l85 160q20 41 0 82l-85 160q-4 8 1.5 12t12.5 -2l203 -181q33 -30 0 -61l-203 -180q-7 -6 -12.5 -2t-1.5 12z" />
    <glyph glyph-name="onequarter" unicode="&#xbc;" horiz-adv-x="702" 
d="M78 253q-17 0 -17 12q0 9 22 24t22 32v237l-50 13q-9 2 -11.5 7t0.5 10.5t10 9.5l117 54q11 4 18 0.5t7 -11.5v-320q0 -17 22 -31.5t22 -24.5q0 -12 -17 -12h-145zM127 40l218 300l184 303q11 18 29 18t24 -13.5t-6 -33.5l-218 -302l-184 -301q-11 -18 -28.5 -18
t-23.5 14t5 33zM333 122v28q0 10 7 20l184 215q6 10 18 10h42q16 0 16 -18v-216h55q12 0 9 -13l-9 -32q-1 -10 -13 -10h-42v-39q0 -17 22 -31t22 -24q0 -12 -16 -12h-136q-16 0 -16 12q0 9 21.5 23.5t21.5 31.5v39h-171q-15 0 -15 16zM384 161h134v157z" />
    <glyph glyph-name="onehalf" unicode="&#xbd;" horiz-adv-x="745" 
d="M77 253q-17 0 -17 12q0 9 22 24t22 32v237l-50 13q-9 2 -11.5 7t0.5 10.5t10 9.5l117 54q10 4 17.5 0.5t7.5 -11.5v-320q0 -17 22 -31.5t22 -24.5q0 -12 -17 -12h-145zM126 40l218 300l184 303q11 18 29 18t24 -13.5t-6 -33.5l-218 -302l-184 -301q-11 -18 -28.5 -18
t-23.5 14t5 33zM412 290q0 47 40 80t102 33q66 0 103.5 -32.5t37.5 -84.5q0 -50 -43.5 -102.5t-146.5 -125.5h102q27 0 37 19l25 44q7 10 15 8t8 -12v-104q0 -14 -17 -14h-252q-13 0 -16 10.5t9 20.5q95 79 136.5 138.5t41.5 127.5q0 74 -49 74q-43 0 -43 -41q0 -12 8 -28
t8 -26q0 -18 -13.5 -31t-36.5 -13q-26 0 -41 16.5t-15 42.5z" />
    <glyph glyph-name="threequarters" unicode="&#xbe;" horiz-adv-x="760" 
d="M154 470q43 12 58.5 31t15.5 55q0 71 -53 71q-20 0 -32.5 -10t-12.5 -22q0 -7 10.5 -21.5t10.5 -28.5q0 -18 -13 -29.5t-34 -11.5q-26 0 -40 15.5t-14 41.5q0 44 38.5 70t96.5 26q57 0 95 -26t38 -72q0 -70 -83 -90q44 -9 70 -35.5t26 -66.5q0 -55 -43 -89t-115 -34
q-62 0 -94.5 24.5t-32.5 58.5q0 23 13.5 36t35.5 13q44 0 44 -48q0 -25 8.5 -37.5t32.5 -12.5q28 0 42.5 22t14.5 58q0 37 -18 58.5t-62 27.5q-15 1 -15.5 12t12.5 14zM185 40l218 300l184 303q11 18 29 18t24 -13.5t-6 -33.5l-218 -302l-184 -301q-11 -18 -28.5 -18
t-23.5 14t5 33zM391 122v28q0 10 7 20l184 215q6 10 18 10h42q16 0 16 -18v-216h55q12 0 9 -13l-9 -32q-1 -10 -13 -10h-42v-39q0 -17 22 -31t22 -24q0 -12 -16 -12h-136q-16 0 -16 12q0 9 21.5 23.5t21.5 31.5v39h-171q-15 0 -15 16zM442 161h134v157z" />
    <glyph glyph-name="questiondown" unicode="&#xbf;" horiz-adv-x="486" 
d="M250 516q76 0 120 -35.5t44 -96.5q0 -46 -27.5 -81.5t-66 -57.5t-77.5 -42.5t-66.5 -48t-27.5 -62.5q0 -68 72 -68q34 0 54 16t28.5 39t16 46t22.5 39t42 16q25 0 39.5 -13.5t14.5 -37.5q0 -54 -61.5 -98t-154.5 -44q-79 0 -126 36.5t-47 93.5q0 48 27.5 83.5t66 57
t77.5 41.5t66.5 47t27.5 63q0 32 -18.5 50.5t-49.5 18.5q-32 0 -49 -22t-21 -48t-18 -48t-41 -22q-46 0 -46 49q0 51 50 90t129 39zM177 654q0 31 22 53t54 22q31 0 53 -21.5t22 -53.5t-22 -54.5t-53 -22.5q-32 0 -54 22.5t-22 54.5z" />
    <glyph glyph-name="Agrave" unicode="&#xc0;" horiz-adv-x="691" 
d="M21 0q-18 0 -18 14q0 10 11 19t27 24t24 36l206 517q8 26 6 38.5t-8 27.5t-6 22q0 17 19 17h75q27 0 36 -20l235 -599q11 -28 34.5 -49t23.5 -32q0 -15 -17 -15h-200q-18 0 -18 14q0 12 24 31t24 36q0 9 -7 28l-34 88h-286l-34 -89q-7 -17 -7 -33q0 -18 23 -34t23 -27
q0 -14 -18 -14h-138zM192 247h247l-123 322zM192 826q0 18 13 29.5t35 11.5q24 0 48 -14l121 -62q23 -13 17.5 -29.5t-30.5 -12.5l-141 23q-31 4 -47 19t-16 35z" />
    <glyph glyph-name="Aacute" unicode="&#xc1;" horiz-adv-x="691" 
d="M21 0q-18 0 -18 14q0 10 11 19t27 24t24 36l206 517q8 26 6 38.5t-8 27.5t-6 22q0 17 19 17h75q27 0 36 -20l235 -599q11 -28 34.5 -49t23.5 -32q0 -15 -17 -15h-200q-18 0 -18 14q0 12 24 31t24 36q0 9 -7 28l-34 88h-286l-34 -89q-7 -17 -7 -33q0 -18 23 -34t23 -27
q0 -14 -18 -14h-138zM192 247h247l-123 322zM237 790l122 63q24 14 48 14q22 0 35 -11.5t13 -29.5q0 -20 -16 -35t-47 -19l-141 -23q-24 -4 -30.5 12t16.5 29z" />
    <glyph glyph-name="Acircumflex" unicode="&#xc2;" horiz-adv-x="691" 
d="M21 0q-18 0 -18 14q0 10 11 19t27 24t24 36l206 517q8 26 6 38.5t-8 27.5t-6 22q0 17 19 17h75q27 0 36 -20l235 -599q11 -28 34.5 -49t23.5 -32q0 -15 -17 -15h-200q-18 0 -18 14q0 12 24 31t24 36q0 9 -7 28l-34 88h-286l-34 -89q-7 -17 -7 -33q0 -18 23 -34t23 -27
q0 -14 -18 -14h-138zM192 247h247l-123 322zM198 779l113 91q23 20 47 0l115 -91q14 -12 7.5 -23.5t-22.5 -4.5l-124 44l-121 -44q-16 -7 -22.5 4.5t7.5 23.5z" />
    <glyph glyph-name="Atilde" unicode="&#xc3;" horiz-adv-x="691" 
d="M21 0q-18 0 -18 14q0 10 11 19t27 24t24 36l206 517q8 26 6 38.5t-8 27.5t-6 22q0 17 19 17h75q27 0 36 -20l235 -599q11 -28 34.5 -49t23.5 -32q0 -15 -17 -15h-200q-18 0 -18 14q0 12 24 31t24 36q0 9 -7 28l-34 88h-286l-34 -89q-7 -17 -7 -33q0 -18 23 -34t23 -27
q0 -14 -18 -14h-138zM176 801q42 79 101 79q13 0 32.5 -7.5t50.5 -22.5t52 -23l62 40q11 7 19 0t1 -20q-37 -79 -99 -79q-14 0 -33.5 7t-51.5 22t-52 23l-61 -38q-12 -7 -20 -0.5t-1 19.5zM192 247h247l-123 322z" />
    <glyph glyph-name="Adieresis" unicode="&#xc4;" horiz-adv-x="691" 
d="M21 0q-18 0 -18 14q0 10 11 19t27 24t24 36l206 517q8 26 6 38.5t-8 27.5t-6 22q0 17 19 17h75q27 0 36 -20l235 -599q11 -28 34.5 -49t23.5 -32q0 -15 -17 -15h-200q-18 0 -18 14q0 12 24 31t24 36q0 9 -7 28l-34 88h-286l-34 -89q-7 -17 -7 -33q0 -18 23 -34t23 -27
q0 -14 -18 -14h-138zM159 827q0 29 19.5 48.5t47.5 19.5t47.5 -20t19.5 -48q0 -27 -19.5 -46.5t-47.5 -19.5t-47.5 19.5t-19.5 46.5zM192 247h247l-123 322zM374 827q0 29 20 48.5t48 19.5q27 0 46.5 -20t19.5 -48q0 -27 -20 -46.5t-46 -19.5q-28 0 -48 19.5t-20 46.5z" />
    <glyph glyph-name="Aring" unicode="&#xc5;" horiz-adv-x="691" 
d="M21 0q-18 0 -18 14q0 10 11 19t27 24t24 36l206 517q8 26 6 38.5t-8 27.5t-6 22q0 17 19 17h75q27 0 36 -20l235 -599q11 -28 34.5 -49t23.5 -32q0 -15 -17 -15h-200q-18 0 -18 14q0 12 24 31t24 36q0 9 -7 28l-34 88h-286l-34 -89q-7 -17 -7 -33q0 -18 23 -34t23 -27
q0 -14 -18 -14h-138zM192 247h247l-123 322zM242 833q0 37 27 63t65 26t65.5 -26t27.5 -63t-27.5 -63t-65.5 -26t-65 26t-27 63zM291 833q0 -18 12.5 -31t30.5 -13q19 0 32 13t13 31t-13 31t-32 13q-18 0 -30.5 -13t-12.5 -31z" />
    <glyph glyph-name="AE" unicode="&#xc6;" horiz-adv-x="992" 
d="M16 0q-18 0 -18 14q0 9 10.5 18t28 26t29.5 40l292 514q13 30 4.5 41t-25.5 23.5t-17 22.5q0 6 5.5 11t14.5 5h537q51 0 51 -48v-131q0 -19 -14 -22t-24 12l-60 95q-27 43 -82 43h-166q-28 0 -28 -29v-228h120q38 0 57 33l39 61q10 18 22.5 14t12.5 -24v-219
q0 -20 -12.5 -24t-22.5 15l-39 61q-19 32 -57 32h-120v-267q0 -21 8.5 -29.5t29.5 -8.5h152q32 0 51.5 9.5t34.5 34.5l59 95q10 17 24 14t14 -22v-132q0 -50 -52 -50h-473q-20 0 -20 16q0 12 13 20.5t25.5 19.5t12.5 30v141h-224l-68 -122q-13 -32 -5.5 -42.5t24 -23
t16.5 -25.5q0 -14 -18 -14h-142zM237 278h196v353z" />
    <glyph glyph-name="Ccedilla" unicode="&#xc7;" horiz-adv-x="705" 
d="M53 359q0 165 97 268t250 103q109 0 183.5 -51t74.5 -127q0 -37 -20 -60.5t-54 -23.5t-54.5 22t-20.5 60q0 8 1.5 24t1.5 23q0 37 -29.5 59.5t-85.5 22.5q-101 0 -164.5 -74t-63.5 -204q0 -138 70 -223.5t189 -85.5q56 0 102.5 19t75 38.5t39.5 19.5q15 0 15 -18
q0 -39 -51 -92q-76 -73 -202 -74l-27 -35q60 0 93 -20.5t33 -54.5q0 -38 -39 -63.5t-106 -25.5q-46 0 -72 15.5t-26 38.5q0 18 11.5 29.5t30.5 11.5q15 0 45 -14t52 -14q42 0 42 32q0 24 -33 24q-8 0 -25 -2t-25 -2q-35 0 -35 26q0 13 19 36l18 20q-141 13 -225.5 115
t-84.5 257z" />
    <glyph glyph-name="Egrave" unicode="&#xc8;" horiz-adv-x="671" 
d="M82 0q-9 0 -14.5 5t-5.5 11q0 14 26 30t26 40v543q0 15 -8 25t-18 14.5t-18 12t-8 18.5q0 6 5.5 11t14.5 5h474q51 0 51 -48v-131q0 -19 -14 -22t-24 12l-60 95q-27 43 -81 43h-166q-29 0 -29 -29v-228h120q39 0 57 33l39 61q11 18 23.5 14.5t12.5 -24.5v-219
q0 -21 -12.5 -24.5t-23.5 15.5l-39 61q-17 32 -57 32h-120v-267q0 -21 9 -29.5t29 -8.5h154q31 0 50 9.5t35 34.5l58 95q10 17 24 14t14 -22v-132q0 -50 -52 -50h-472zM223 826q0 18 13 29.5t35 11.5q24 0 48 -14l121 -62q23 -13 17.5 -29.5t-30.5 -12.5l-141 23
q-31 4 -47 19t-16 35z" />
    <glyph glyph-name="Eacute" unicode="&#xc9;" horiz-adv-x="671" 
d="M82 0q-9 0 -14.5 5t-5.5 11q0 14 26 30t26 40v543q0 15 -8 25t-18 14.5t-18 12t-8 18.5q0 6 5.5 11t14.5 5h474q51 0 51 -48v-131q0 -19 -14 -22t-24 12l-60 95q-27 43 -81 43h-166q-29 0 -29 -29v-228h120q39 0 57 33l39 61q11 18 23.5 14.5t12.5 -24.5v-219
q0 -21 -12.5 -24.5t-23.5 15.5l-39 61q-17 32 -57 32h-120v-267q0 -21 9 -29.5t29 -8.5h154q31 0 50 9.5t35 34.5l58 95q10 17 24 14t14 -22v-132q0 -50 -52 -50h-472zM268 790l122 63q24 14 48 14q22 0 35 -11.5t13 -29.5q0 -20 -16 -35t-47 -19l-141 -23q-24 -4 -30.5 12
t16.5 29z" />
    <glyph glyph-name="Ecircumflex" unicode="&#xca;" horiz-adv-x="671" 
d="M82 0q-9 0 -14.5 5t-5.5 11q0 14 26 30t26 40v543q0 15 -8 25t-18 14.5t-18 12t-8 18.5q0 6 5.5 11t14.5 5h474q51 0 51 -48v-131q0 -19 -14 -22t-24 12l-60 95q-27 43 -81 43h-166q-29 0 -29 -29v-228h120q39 0 57 33l39 61q11 18 23.5 14.5t12.5 -24.5v-219
q0 -21 -12.5 -24.5t-23.5 15.5l-39 61q-17 32 -57 32h-120v-267q0 -21 9 -29.5t29 -8.5h154q31 0 50 9.5t35 34.5l58 95q10 17 24 14t14 -22v-132q0 -50 -52 -50h-472zM229 779l113 91q23 20 47 0l115 -91q14 -12 7.5 -23.5t-22.5 -4.5l-124 44l-121 -44q-16 -7 -22.5 4.5
t7.5 23.5z" />
    <glyph glyph-name="Edieresis" unicode="&#xcb;" horiz-adv-x="671" 
d="M82 0q-9 0 -14.5 5t-5.5 11q0 14 26 30t26 40v543q0 15 -8 25t-18 14.5t-18 12t-8 18.5q0 6 5.5 11t14.5 5h474q51 0 51 -48v-131q0 -19 -14 -22t-24 12l-60 95q-27 43 -81 43h-166q-29 0 -29 -29v-228h120q39 0 57 33l39 61q11 18 23.5 14.5t12.5 -24.5v-219
q0 -21 -12.5 -24.5t-23.5 15.5l-39 61q-17 32 -57 32h-120v-267q0 -21 9 -29.5t29 -8.5h154q31 0 50 9.5t35 34.5l58 95q10 17 24 14t14 -22v-132q0 -50 -52 -50h-472zM191 827q0 29 19.5 48.5t47.5 19.5t47.5 -20t19.5 -48q0 -27 -19.5 -46.5t-47.5 -19.5t-47.5 19.5
t-19.5 46.5zM406 827q0 29 20 48.5t48 19.5q27 0 46.5 -20t19.5 -48q0 -27 -20 -46.5t-46 -19.5q-28 0 -48 19.5t-20 46.5z" />
    <glyph glyph-name="Igrave" unicode="&#xcc;" horiz-adv-x="346" 
d="M82 0q-9 0 -14.5 5t-5.5 11q0 12 13 20.5t26 19.5t13 30v543q0 15 -8 25t-18 14.5t-18 12t-8 18.5q0 6 5.5 11t14.5 5h182q20 0 20 -16q0 -17 -25.5 -32t-25.5 -38v-543q0 -25 25.5 -40.5t25.5 -29.5q0 -16 -20 -16h-182zM31 826q0 18 13 29.5t35 11.5q24 0 48 -14
l121 -62q23 -13 17.5 -29.5t-30.5 -12.5l-141 23q-31 4 -47 19t-16 35z" />
    <glyph glyph-name="Iacute" unicode="&#xcd;" horiz-adv-x="346" 
d="M82 0q-9 0 -14.5 5t-5.5 11q0 12 13 20.5t26 19.5t13 30v543q0 15 -8 25t-18 14.5t-18 12t-8 18.5q0 6 5.5 11t14.5 5h182q20 0 20 -16q0 -17 -25.5 -32t-25.5 -38v-543q0 -25 25.5 -40.5t25.5 -29.5q0 -16 -20 -16h-182zM76 790l122 63q24 14 48 14q22 0 35 -11.5
t13 -29.5q0 -20 -16 -35t-47 -19l-141 -23q-24 -4 -30.5 12t16.5 29z" />
    <glyph glyph-name="Icircumflex" unicode="&#xce;" horiz-adv-x="346" 
d="M82 0q-9 0 -14.5 5t-5.5 11q0 12 13 20.5t26 19.5t13 30v543q0 15 -8 25t-18 14.5t-18 12t-8 18.5q0 6 5.5 11t14.5 5h182q20 0 20 -16q0 -17 -25.5 -32t-25.5 -38v-543q0 -25 25.5 -40.5t25.5 -29.5q0 -16 -20 -16h-182zM36 779l113 91q23 20 47 0l115 -91
q14 -12 7.5 -23.5t-22.5 -4.5l-124 44l-121 -44q-16 -7 -22.5 4.5t7.5 23.5z" />
    <glyph glyph-name="Idieresis" unicode="&#xcf;" horiz-adv-x="346" 
d="M82 0q-9 0 -14.5 5t-5.5 11q0 12 13 20.5t26 19.5t13 30v543q0 15 -8 25t-18 14.5t-18 12t-8 18.5q0 6 5.5 11t14.5 5h182q20 0 20 -16q0 -17 -25.5 -32t-25.5 -38v-543q0 -25 25.5 -40.5t25.5 -29.5q0 -16 -20 -16h-182zM-1 827q0 29 19.5 48.5t47.5 19.5t47.5 -20
t19.5 -48q0 -27 -19.5 -46.5t-47.5 -19.5t-47.5 19.5t-19.5 46.5zM214 827q0 29 20 48.5t48 19.5q27 0 46.5 -20t19.5 -48q0 -27 -20 -46.5t-46 -19.5q-28 0 -48 19.5t-20 46.5z" />
    <glyph glyph-name="Eth" unicode="&#xd0;" horiz-adv-x="763" 
d="M50 360q-20 -1 -28 12.5t0 27t28 12.5l76 -4v221q0 23 -26 38.5t-26 31.5q0 6 5.5 11t14.5 5h231q182 0 283.5 -94t101.5 -262q0 -170 -101.5 -264.5t-281.5 -94.5h-233q-9 0 -14.5 5t-5.5 11q0 12 13 20.5t26 19.5t13 30v280zM245 77q0 -28 29 -28h32q134 0 201.5 75
t67.5 233q0 147 -69 228t-203 81h-29q-29 0 -29 -29v-230l143 5q20 0 28.5 -13t0 -26t-28.5 -13l-143 7v-290z" />
    <glyph glyph-name="Ntilde" unicode="&#xd1;" horiz-adv-x="785" 
d="M93 0q-19 0 -19 16q0 13 20.5 34.5t20.5 45.5v504q0 23 -33 52.5t-33 45.5q0 17 24 17h113q34 0 54 -25l382 -477v406q0 26 -26 45.5t-26 34.5q0 16 20 16h117q18 0 18 -14q0 -12 -20.5 -35.5t-20.5 -46.5v-598q0 -27 -22.5 -32t-39.5 17l-445 558v-468q0 -21 13.5 -34
t26.5 -23t13 -23q0 -16 -19 -16h-118zM268 801q42 79 101 79q13 0 32.5 -7.5t50.5 -22.5t52 -23l62 40q11 7 19 0t1 -20q-37 -79 -99 -79q-14 0 -33.5 7t-51.5 22t-52 23l-61 -38q-12 -7 -20 -0.5t-1 19.5z" />
    <glyph glyph-name="Ograve" unicode="&#xd2;" horiz-adv-x="811" 
d="M405 -15q-158 0 -255.5 109t-97.5 263t97.5 263.5t255.5 109.5q159 0 256.5 -109.5t97.5 -263.5t-97.5 -263t-256.5 -109zM198 336q0 -142 54 -220.5t153 -78.5q100 0 154.5 78.5t54.5 220.5v45q0 141 -54.5 219t-154.5 78q-99 0 -153 -78t-54 -219v-45zM263 826
q0 18 13 29.5t35 11.5q24 0 48 -14l121 -62q23 -13 17.5 -29.5t-30.5 -12.5l-141 23q-31 4 -47 19t-16 35z" />
    <glyph glyph-name="Oacute" unicode="&#xd3;" horiz-adv-x="811" 
d="M405 -15q-158 0 -255.5 109t-97.5 263t97.5 263.5t255.5 109.5q159 0 256.5 -109.5t97.5 -263.5t-97.5 -263t-256.5 -109zM198 336q0 -142 54 -220.5t153 -78.5q100 0 154.5 78.5t54.5 220.5v45q0 141 -54.5 219t-154.5 78q-99 0 -153 -78t-54 -219v-45zM308 790l122 63
q24 14 48 14q22 0 35 -11.5t13 -29.5q0 -20 -16 -35t-47 -19l-141 -23q-24 -4 -30.5 12t16.5 29z" />
    <glyph glyph-name="Ocircumflex" unicode="&#xd4;" horiz-adv-x="811" 
d="M405 -15q-158 0 -255.5 109t-97.5 263t97.5 263.5t255.5 109.5q159 0 256.5 -109.5t97.5 -263.5t-97.5 -263t-256.5 -109zM198 336q0 -142 54 -220.5t153 -78.5q100 0 154.5 78.5t54.5 220.5v45q0 141 -54.5 219t-154.5 78q-99 0 -153 -78t-54 -219v-45zM269 779l113 91
q23 20 47 0l115 -91q14 -12 7.5 -23.5t-22.5 -4.5l-124 44l-121 -44q-16 -7 -22.5 4.5t7.5 23.5z" />
    <glyph glyph-name="Otilde" unicode="&#xd5;" horiz-adv-x="811" 
d="M405 -15q-158 0 -255.5 109t-97.5 263t97.5 263.5t255.5 109.5q159 0 256.5 -109.5t97.5 -263.5t-97.5 -263t-256.5 -109zM198 336q0 -142 54 -220.5t153 -78.5q100 0 154.5 78.5t54.5 220.5v45q0 141 -54.5 219t-154.5 78q-99 0 -153 -78t-54 -219v-45zM247 801
q42 79 101 79q13 0 32.5 -7.5t50.5 -22.5t52 -23l62 40q11 7 19 0t1 -20q-37 -79 -99 -79q-14 0 -33.5 7t-51.5 22t-52 23l-61 -38q-12 -7 -20 -0.5t-1 19.5z" />
    <glyph glyph-name="Odieresis" unicode="&#xd6;" horiz-adv-x="811" 
d="M405 -15q-158 0 -255.5 109t-97.5 263t97.5 263.5t255.5 109.5q159 0 256.5 -109.5t97.5 -263.5t-97.5 -263t-256.5 -109zM198 336q0 -142 54 -220.5t153 -78.5q100 0 154.5 78.5t54.5 220.5v45q0 141 -54.5 219t-154.5 78q-99 0 -153 -78t-54 -219v-45zM231 827
q0 29 19.5 48.5t47.5 19.5t47.5 -20t19.5 -48q0 -27 -19.5 -46.5t-47.5 -19.5t-47.5 19.5t-19.5 46.5zM446 827q0 29 20 48.5t48 19.5q27 0 46.5 -20t19.5 -48q0 -27 -20 -46.5t-46 -19.5q-28 0 -48 19.5t-20 46.5z" />
    <glyph glyph-name="multiply" unicode="&#xd7;" horiz-adv-x="473" 
d="M77 177l137 120l-134 117q-14 13 -9 29t20 20t29 -9l116 -134l120 136q13 14 29 9t19.5 -19.5t-9.5 -27.5l-135 -121l134 -117q14 -13 9 -29t-20 -19.5t-30 9.5l-117 133l-120 -136q-12 -14 -28 -8.5t-19.5 19.5t8.5 28z" />
    <glyph glyph-name="Oslash" unicode="&#xd8;" horiz-adv-x="811" 
d="M203 -18q-16 -26 -41 -18q-23 8 -19 30q1 10 9 20l35 45q-64 51 -99.5 130t-35.5 168q0 154 97.5 263.5t255.5 109.5q114 0 202 -61l26 46q16 29 43 21q21 -6 20 -28q-1 -10 -10 -21l-39 -51q112 -109 112 -279q0 -154 -97.5 -263t-256.5 -109q-97 0 -174 44zM198 336
q0 -129 44 -206l164 230l153 241q-55 77 -154 77t-153 -78t-54 -219v-45zM274 89q50 -52 131 -52q100 0 154.5 78.5t54.5 220.5v45q0 101 -29 171l-164 -228z" />
    <glyph glyph-name="Ugrave" unicode="&#xd9;" horiz-adv-x="751" 
d="M389 -15q-135 0 -213.5 69.5t-78.5 189.5v385q0 23 -25.5 38.5t-25.5 31.5t20 16h186q20 0 20 -16q0 -12 -13 -20.5t-25.5 -19.5t-12.5 -30v-371q0 -100 49.5 -150.5t141.5 -50.5q91 0 136 49.5t45 155.5v350q0 26 -26.5 47.5t-26.5 39.5q0 16 22 16h115q20 0 20 -15
q0 -11 -21 -35.5t-21 -51.5v-355q0 -273 -266 -273zM269 826q0 18 13 29.5t35 11.5q24 0 48 -14l121 -62q23 -13 17.5 -29.5t-30.5 -12.5l-141 23q-31 4 -47 19t-16 35z" />
    <glyph glyph-name="Uacute" unicode="&#xda;" horiz-adv-x="751" 
d="M389 -15q-135 0 -213.5 69.5t-78.5 189.5v385q0 23 -25.5 38.5t-25.5 31.5t20 16h186q20 0 20 -16q0 -12 -13 -20.5t-25.5 -19.5t-12.5 -30v-371q0 -100 49.5 -150.5t141.5 -50.5q91 0 136 49.5t45 155.5v350q0 26 -26.5 47.5t-26.5 39.5q0 16 22 16h115q20 0 20 -15
q0 -11 -21 -35.5t-21 -51.5v-355q0 -273 -266 -273zM314 790l122 63q24 14 48 14q22 0 35 -11.5t13 -29.5q0 -20 -16 -35t-47 -19l-141 -23q-24 -4 -30.5 12t16.5 29z" />
    <glyph glyph-name="Ucircumflex" unicode="&#xdb;" horiz-adv-x="751" 
d="M389 -15q-135 0 -213.5 69.5t-78.5 189.5v385q0 23 -25.5 38.5t-25.5 31.5t20 16h186q20 0 20 -16q0 -12 -13 -20.5t-25.5 -19.5t-12.5 -30v-371q0 -100 49.5 -150.5t141.5 -50.5q91 0 136 49.5t45 155.5v350q0 26 -26.5 47.5t-26.5 39.5q0 16 22 16h115q20 0 20 -15
q0 -11 -21 -35.5t-21 -51.5v-355q0 -273 -266 -273zM275 779l113 91q23 20 47 0l115 -91q14 -12 7.5 -23.5t-22.5 -4.5l-124 44l-121 -44q-16 -7 -22.5 4.5t7.5 23.5z" />
    <glyph glyph-name="Udieresis" unicode="&#xdc;" horiz-adv-x="751" 
d="M389 -15q-135 0 -213.5 69.5t-78.5 189.5v385q0 23 -25.5 38.5t-25.5 31.5t20 16h186q20 0 20 -16q0 -12 -13 -20.5t-25.5 -19.5t-12.5 -30v-371q0 -100 49.5 -150.5t141.5 -50.5q91 0 136 49.5t45 155.5v350q0 26 -26.5 47.5t-26.5 39.5q0 16 22 16h115q20 0 20 -15
q0 -11 -21 -35.5t-21 -51.5v-355q0 -273 -266 -273zM238 827q0 29 19.5 48.5t47.5 19.5t47.5 -20t19.5 -48q0 -27 -19.5 -46.5t-47.5 -19.5t-47.5 19.5t-19.5 46.5zM453 827q0 29 19.5 48.5t48.5 19.5q27 0 46.5 -20t19.5 -48q0 -27 -20 -46.5t-46 -19.5q-28 0 -48 19.5
t-20 46.5z" />
    <glyph glyph-name="Yacute" unicode="&#xdd;" horiz-adv-x="646" 
d="M237 0q-20 0 -20 16q0 12 13 20t26 19.5t13 30.5v253l-191 268q-16 23 -35.5 43.5t-28 30.5t-8.5 18q0 16 18 16h199q18 0 18 -14q0 -10 -22 -29t-22 -34q0 -12 11 -28l144 -202l142 215q9 14 9 26q0 13 -16 28t-16 24q0 14 18 14h132q19 0 19 -14q0 -8 -11.5 -17
t-32 -26t-35.5 -39l-173 -255v-278q0 -15 8 -25t17.5 -14t17.5 -12t8 -19q0 -16 -20 -16h-182zM255 790l122 63q24 14 48 14q22 0 35 -11.5t13 -29.5q0 -20 -16 -35t-47 -19l-141 -23q-24 -4 -30.5 12t16.5 29z" />
    <glyph glyph-name="Thorn" unicode="&#xde;" horiz-adv-x="668" 
d="M353 161q-56 0 -120 13v-88q0 -25 25.5 -40.5t25.5 -29.5q0 -16 -20 -16h-182q-9 0 -14.5 5t-5.5 11q0 12 13 20.5t26 19.5t13 30v543q0 15 -8 25t-18 14.5t-18 12t-8 18.5q0 6 5.5 11t14.5 5h182q20 0 20 -16q0 -17 -25.5 -32t-25.5 -38v-31h58q165 0 249 -59t84 -159
q0 -101 -76.5 -160t-194.5 -59zM233 520v-297q52 -11 91 -11q80 0 126.5 38t46.5 117q0 91 -60.5 136.5t-174.5 45.5q-29 0 -29 -29z" />
    <glyph glyph-name="germandbls" unicode="&#xdf;" horiz-adv-x="607" 
d="M401 -15q-47 0 -73.5 15.5t-26.5 37.5q0 19 19 19q4 0 22.5 -5t32.5 -5q34 0 53 24.5t19 68.5q0 37 -14.5 67t-34.5 49.5t-40.5 38.5t-35 45.5t-14.5 59.5q0 44 24 82t47.5 70.5t23.5 62.5q0 33 -17.5 50.5t-48.5 17.5q-128 0 -128 -232v-366q0 -24 24.5 -39t24.5 -29
q0 -17 -20 -17h-176q-21 0 -21 17q0 12 12.5 19.5t25.5 18t13 30.5v335q0 140 63.5 225t191.5 85q77 0 119.5 -31t42.5 -81q0 -30 -18.5 -52t-40 -32.5t-40 -29t-18.5 -43.5t17.5 -49.5t43 -48t51 -50.5t43 -68t17.5 -90q0 -70 -39.5 -120t-123.5 -50z" />
    <glyph glyph-name="agrave" unicode="&#xe0;" horiz-adv-x="530" 
d="M180 -15q-63 0 -98 35.5t-35 93.5q0 160 285 186v102q0 79 -62 79q-33 0 -57 -20t-35.5 -44.5t-31 -44.5t-44.5 -20q-23 0 -37.5 13.5t-14.5 37.5q0 48 60 85t162 37q87 0 128 -34.5t41 -103.5v-316q0 -24 17 -24q4 0 12 1.5t11 1.5q11 0 11 -14q0 -20 -23.5 -35.5
t-56.5 -15.5q-66 0 -77 75q-57 -75 -155 -75zM157 675q0 22 14.5 37t37.5 15q30 0 70 -46l66 -74q15 -19 3.5 -34t-32.5 -7l-108 49q-51 22 -51 60zM161 139q0 -32 20 -54t59 -22q45 0 92 41v153q-171 -22 -171 -118z" />
    <glyph glyph-name="aacute" unicode="&#xe1;" horiz-adv-x="530" 
d="M180 -15q-63 0 -98 35.5t-35 93.5q0 160 285 186v102q0 79 -62 79q-33 0 -57 -20t-35.5 -44.5t-31 -44.5t-44.5 -20q-23 0 -37.5 13.5t-14.5 37.5q0 48 60 85t162 37q87 0 128 -34.5t41 -103.5v-316q0 -24 17 -24q4 0 12 1.5t11 1.5q11 0 11 -14q0 -20 -23.5 -35.5
t-56.5 -15.5q-66 0 -77 75q-57 -75 -155 -75zM161 139q0 -32 20 -54t59 -22q45 0 92 41v153q-171 -22 -171 -118zM181 607l66 74q40 46 70 46q23 0 37.5 -15t14.5 -37q0 -38 -51 -60l-108 -49q-21 -8 -32.5 7t3.5 34z" />
    <glyph glyph-name="acircumflex" unicode="&#xe2;" horiz-adv-x="530" 
d="M180 -15q-63 0 -98 35.5t-35 93.5q0 160 285 186v102q0 79 -62 79q-33 0 -57 -20t-35.5 -44.5t-31 -44.5t-44.5 -20q-23 0 -37.5 13.5t-14.5 37.5q0 48 60 85t162 37q87 0 128 -34.5t41 -103.5v-316q0 -24 17 -24q4 0 12 1.5t11 1.5q11 0 11 -14q0 -20 -23.5 -35.5
t-56.5 -15.5q-66 0 -77 75q-57 -75 -155 -75zM124 582q0 10 9 20l83 93q26 32 48 32q20 0 48 -32l83 -93q9 -10 9 -20q0 -11 -10 -14.5t-23 3.5l-107 64l-106 -64q-13 -7 -23.5 -3.5t-10.5 14.5zM161 139q0 -32 20 -54t59 -22q45 0 92 41v153q-171 -22 -171 -118z" />
    <glyph glyph-name="atilde" unicode="&#xe3;" horiz-adv-x="530" 
d="M180 -15q-63 0 -98 35.5t-35 93.5q0 160 285 186v102q0 79 -62 79q-33 0 -57 -20t-35.5 -44.5t-31 -44.5t-44.5 -20q-23 0 -37.5 13.5t-14.5 37.5q0 48 60 85t162 37q87 0 128 -34.5t41 -103.5v-316q0 -24 17 -24q4 0 12 1.5t11 1.5q11 0 11 -14q0 -20 -23.5 -35.5
t-56.5 -15.5q-66 0 -77 75q-57 -75 -155 -75zM98 625q38 89 104 89q19 0 39 -7.5t51 -22t57 -23.5l63 40q10 7 16.5 2t2.5 -17q-35 -91 -106 -91q-20 0 -38.5 7t-48.5 21.5t-61 25.5l-61 -40q-11 -7 -17.5 -1.5t-0.5 17.5zM161 139q0 -32 20 -54t59 -22q45 0 92 41v153
q-171 -22 -171 -118z" />
    <glyph glyph-name="adieresis" unicode="&#xe4;" horiz-adv-x="530" 
d="M180 -15q-63 0 -98 35.5t-35 93.5q0 160 285 186v102q0 79 -62 79q-33 0 -57 -20t-35.5 -44.5t-31 -44.5t-44.5 -20q-23 0 -37.5 13.5t-14.5 37.5q0 48 60 85t162 37q87 0 128 -34.5t41 -103.5v-316q0 -24 17 -24q4 0 12 1.5t11 1.5q11 0 11 -14q0 -20 -23.5 -35.5
t-56.5 -15.5q-66 0 -77 75q-57 -75 -155 -75zM89 657q0 29 21 49.5t51 20.5q29 0 50 -20.5t21 -49.5q0 -30 -21 -50.5t-50 -20.5q-30 0 -51 20.5t-21 50.5zM161 139q0 -32 20 -54t59 -22q45 0 92 41v153q-171 -22 -171 -118zM296 657q0 29 21 49.5t50 20.5t50 -20.5
t21 -49.5q0 -30 -21 -50.5t-50 -20.5t-50 20.5t-21 50.5z" />
    <glyph glyph-name="aring" unicode="&#xe5;" horiz-adv-x="530" 
d="M180 -15q-63 0 -98 35.5t-35 93.5q0 160 285 186v102q0 79 -62 79q-33 0 -57 -20t-35.5 -44.5t-31 -44.5t-44.5 -20q-23 0 -37.5 13.5t-14.5 37.5q0 48 60 85t162 37q87 0 128 -34.5t41 -103.5v-316q0 -24 17 -24q4 0 12 1.5t11 1.5q11 0 11 -14q0 -20 -23.5 -35.5
t-56.5 -15.5q-66 0 -77 75q-57 -75 -155 -75zM161 139q0 -32 20 -54t59 -22q45 0 92 41v153q-171 -22 -171 -118zM177 643q0 35 25.5 59.5t61.5 24.5t61 -24.5t25 -59.5t-25 -59.5t-61 -24.5t-61.5 24.5t-25.5 59.5zM220 643q0 -19 12.5 -32.5t31.5 -13.5t32 13.5t13 32.5
t-13 32.5t-32 13.5t-31.5 -13.5t-12.5 -32.5z" />
    <glyph glyph-name="ae" unicode="&#xe6;" horiz-adv-x="824" 
d="M183 -15q-66 0 -102 34.5t-36 92.5q0 82 72.5 143.5t218.5 77.5v64q0 84 -63 84q-33 0 -57 -20t-35.5 -44t-31 -44t-44.5 -20q-23 0 -37 13.5t-14 36.5q0 47 58.5 84.5t152.5 37.5q112 0 155 -65q63 65 158 65q91 0 144 -52.5t53 -124.5q0 -31 -12 -43.5t-38 -12.5h-290
q3 -103 51.5 -160t127.5 -57q43 0 75.5 17t51.5 34t28 17t11.5 -7.5t-3.5 -21.5q-22 -59 -75 -94t-127 -35q-68 0 -120 28.5t-79 76.5q-88 -105 -193 -105zM159 144q0 -36 20 -58t59 -22q66 0 119 63q-20 67 -20 160q-96 -12 -137 -53t-41 -90zM436 339h199q16 0 23 7.5
t7 27.5q0 41 -25.5 72.5t-76.5 31.5q-53 0 -87.5 -35t-39.5 -104z" />
    <glyph glyph-name="ccedilla" unicode="&#xe7;" horiz-adv-x="521" 
d="M45 251q0 123 69 198.5t178 75.5q78 0 133.5 -38t55.5 -96q0 -32 -17 -53t-49 -21q-30 0 -48 20t-18 52q0 8 1.5 23t1.5 20q0 46 -63 46q-67 0 -106.5 -46t-39.5 -137q0 -100 49 -158t136 -58q40 0 68.5 12.5t44 25t22.5 12.5q13 0 13 -18q0 -40 -52.5 -81.5
t-128.5 -44.5l-28 -35q60 0 93 -20.5t33 -54.5q0 -38 -39 -63.5t-106 -25.5q-46 0 -72 15.5t-26 38.5q0 18 12 29.5t30 11.5q15 0 45 -14t52 -14q42 0 42 32q0 24 -33 24q-8 0 -25 -2t-25 -2q-35 0 -35 26q0 13 19 36l19 20q-91 12 -148.5 83t-57.5 181z" />
    <glyph glyph-name="egrave" unicode="&#xe8;" horiz-adv-x="536" 
d="M290 -15q-107 0 -176 74t-69 199q0 120 66 193.5t172 73.5q91 0 147 -52.5t56 -123.5q0 -31 -12 -44t-36 -13h-291q2 -103 49.5 -160t127.5 -57q43 0 76 16.5t52 32.5t28 16q11 0 11 -16q0 -12 -5 -24q-19 -50 -72 -82.5t-124 -32.5zM148 340h199q30 0 30 27q0 47 -25 79
t-77 32q-54 0 -88.5 -36t-38.5 -102zM169 675q0 22 14.5 37t37.5 15q30 0 70 -46l66 -74q15 -19 3.5 -34t-32.5 -7l-108 49q-51 22 -51 60z" />
    <glyph glyph-name="eacute" unicode="&#xe9;" horiz-adv-x="536" 
d="M290 -15q-107 0 -176 74t-69 199q0 120 66 193.5t172 73.5q91 0 147 -52.5t56 -123.5q0 -31 -12 -44t-36 -13h-291q2 -103 49.5 -160t127.5 -57q43 0 76 16.5t52 32.5t28 16q11 0 11 -16q0 -12 -5 -24q-19 -50 -72 -82.5t-124 -32.5zM148 340h199q30 0 30 27q0 47 -25 79
t-77 32q-54 0 -88.5 -36t-38.5 -102zM194 607l66 74q40 46 70 46q23 0 37.5 -15t14.5 -37q0 -38 -51 -60l-108 -49q-21 -8 -32.5 7t3.5 34z" />
    <glyph glyph-name="ecircumflex" unicode="&#xea;" horiz-adv-x="536" 
d="M290 -15q-107 0 -176 74t-69 199q0 120 66 193.5t172 73.5q91 0 147 -52.5t56 -123.5q0 -31 -12 -44t-36 -13h-291q2 -103 49.5 -160t127.5 -57q43 0 76 16.5t52 32.5t28 16q11 0 11 -16q0 -12 -5 -24q-19 -50 -72 -82.5t-124 -32.5zM136 582q0 10 9 20l83 93
q26 32 48 32q20 0 48 -32l83 -93q9 -10 9 -20q0 -11 -10 -14.5t-23 3.5l-107 64l-106 -64q-13 -7 -23.5 -3.5t-10.5 14.5zM148 340h199q30 0 30 27q0 47 -25 79t-77 32q-54 0 -88.5 -36t-38.5 -102z" />
    <glyph glyph-name="edieresis" unicode="&#xeb;" horiz-adv-x="536" 
d="M290 -15q-107 0 -176 74t-69 199q0 120 66 193.5t172 73.5q91 0 147 -52.5t56 -123.5q0 -31 -12 -44t-36 -13h-291q2 -103 49.5 -160t127.5 -57q43 0 76 16.5t52 32.5t28 16q11 0 11 -16q0 -12 -5 -24q-19 -50 -72 -82.5t-124 -32.5zM102 657q0 29 21 49.5t51 20.5
q29 0 50 -20.5t21 -49.5q0 -30 -21 -50.5t-50 -20.5q-30 0 -51 20.5t-21 50.5zM148 340h199q30 0 30 27q0 47 -25 79t-77 32q-54 0 -88.5 -36t-38.5 -102zM309 657q0 29 21 49.5t50 20.5t50 -20.5t21 -49.5q0 -30 -21 -50.5t-50 -20.5t-50 20.5t-21 50.5z" />
    <glyph glyph-name="igrave" unicode="&#xec;" horiz-adv-x="296" 
d="M71 0q-9 0 -14.5 5t-5.5 12q0 13 23.5 25.5t23.5 26.5v319q0 12 -9 20t-19 11t-19 9.5t-9 16.5t16 20l110 55q14 9 26.5 4t12.5 -22v-433q0 -13 23 -26t23 -26q0 -7 -6 -12t-15 -5h-161zM39 675q0 22 14.5 37t37.5 15q30 0 70 -46l66 -74q15 -19 3.5 -34t-32.5 -7
l-108 49q-51 22 -51 60z" />
    <glyph glyph-name="iacute" unicode="&#xed;" horiz-adv-x="296" 
d="M71 0q-9 0 -14.5 5t-5.5 12q0 13 23.5 25.5t23.5 26.5v319q0 12 -9 20t-19 11t-19 9.5t-9 16.5t16 20l110 55q14 9 26.5 4t12.5 -22v-433q0 -13 23 -26t23 -26q0 -7 -6 -12t-15 -5h-161zM63 607l66 74q40 46 70 46q23 0 37.5 -15t14.5 -37q0 -38 -51 -60l-108 -49
q-21 -8 -32.5 7t3.5 34z" />
    <glyph glyph-name="icircumflex" unicode="&#xee;" horiz-adv-x="296" 
d="M71 0q-9 0 -14.5 5t-5.5 12q0 13 23.5 25.5t23.5 26.5v319q0 12 -9 20t-19 11t-19 9.5t-9 16.5t16 20l110 55q14 9 26.5 4t12.5 -22v-433q0 -13 23 -26t23 -26q0 -7 -6 -12t-15 -5h-161zM6 582q0 10 9 20l83 93q26 32 48 32q20 0 48 -32l83 -93q9 -10 9 -20
q0 -11 -10 -14.5t-23 3.5l-107 64l-106 -64q-13 -7 -23.5 -3.5t-10.5 14.5z" />
    <glyph glyph-name="idieresis" unicode="&#xef;" horiz-adv-x="296" 
d="M71 0q-9 0 -14.5 5t-5.5 12q0 13 23.5 25.5t23.5 26.5v319q0 12 -9 20t-19 11t-19 9.5t-9 16.5t16 20l110 55q14 9 26.5 4t12.5 -22v-433q0 -13 23 -26t23 -26q0 -7 -6 -12t-15 -5h-161zM-29 657q0 29 21 49.5t51 20.5q29 0 50 -20.5t21 -49.5q0 -30 -21 -50.5t-50 -20.5
q-30 0 -51 20.5t-21 50.5zM178 657q0 29 21 49.5t50 20.5t50 -20.5t21 -49.5q0 -30 -21 -50.5t-50 -20.5t-50 20.5t-21 50.5z" />
    <glyph glyph-name="eth" unicode="&#xf0;" horiz-adv-x="558" 
d="M283 -12q-76 0 -132 39t-81 96t-25 122q0 99 58.5 164t154.5 65q40 0 82 -17q-35 69 -86 122l-5 6l-104 -53q-27 -15 -39 8q-12 24 18 36l91 40q-38 31 -115 77q-9 9 -4 16t18 7q65 0 173 -67l108 53q29 13 39 -10q12 -23 -19 -36l-86 -36l18 -15q75 -66 118.5 -154.5
t43.5 -184.5q0 -136 -64 -207t-162 -71zM167 264q0 -92 35.5 -162t94.5 -70q45 0 71 44.5t26 131.5q0 106 -32 196q-41 24 -84 24q-56 0 -83.5 -43t-27.5 -121z" />
    <glyph glyph-name="ntilde" unicode="&#xf1;" horiz-adv-x="617" 
d="M396 0q-20 0 -20 17q0 13 23 25t23 24v275q0 58 -20 82t-68 24q-59 0 -127 -31v-350q0 -10 23 -23t23 -26q0 -17 -21 -17h-161q-20 0 -20 17q0 13 23 25.5t23 23.5v321q0 12 -8.5 20.5t-19 11.5t-19 9t-8.5 15q0 12 16 20l112 57q14 8 25.5 3t11.5 -21v-44q106 67 203 67
q121 0 121 -131v-328q0 -11 22.5 -23.5t22.5 -25.5q0 -17 -20 -17h-160zM164 625q38 89 104 89q19 0 39 -7.5t51 -22t57 -23.5l63 40q10 7 16.5 2t2.5 -17q-35 -91 -106 -91q-20 0 -38.5 7t-48.5 21.5t-61 25.5l-61 -40q-11 -7 -17.5 -1.5t-0.5 17.5z" />
    <glyph glyph-name="ograve" unicode="&#xf2;" horiz-adv-x="597" 
d="M298 -15q-110 0 -182 75t-72 195q0 121 72 195.5t182 74.5t182 -74.5t72 -195.5q0 -120 -72 -195t-182 -75zM170 224q0 -91 33.5 -140.5t94.5 -49.5t94.5 49.5t33.5 141.5v61q0 191 -128 191t-128 -191v-62zM190 675q0 22 14.5 37t37.5 15q30 0 70 -46l66 -74
q15 -19 3.5 -34t-32.5 -7l-108 49q-51 22 -51 60z" />
    <glyph glyph-name="oacute" unicode="&#xf3;" horiz-adv-x="597" 
d="M298 -15q-110 0 -182 75t-72 195q0 121 72 195.5t182 74.5t182 -74.5t72 -195.5q0 -120 -72 -195t-182 -75zM170 224q0 -91 33.5 -140.5t94.5 -49.5t94.5 49.5t33.5 141.5v61q0 191 -128 191t-128 -191v-62zM215 607l66 74q40 46 70 46q23 0 37.5 -15t14.5 -37
q0 -38 -51 -60l-108 -49q-21 -8 -32.5 7t3.5 34z" />
    <glyph glyph-name="ocircumflex" unicode="&#xf4;" horiz-adv-x="597" 
d="M298 -15q-110 0 -182 75t-72 195q0 121 72 195.5t182 74.5t182 -74.5t72 -195.5q0 -120 -72 -195t-182 -75zM158 582q0 10 9 20l83 93q26 32 48 32q20 0 48 -32l83 -93q9 -10 9 -20q0 -11 -10 -14.5t-23 3.5l-107 64l-106 -64q-13 -7 -23.5 -3.5t-10.5 14.5zM170 224
q0 -91 33.5 -140.5t94.5 -49.5t94.5 49.5t33.5 141.5v61q0 191 -128 191t-128 -191v-62z" />
    <glyph glyph-name="otilde" unicode="&#xf5;" horiz-adv-x="597" 
d="M298 -15q-110 0 -182 75t-72 195q0 121 72 195.5t182 74.5t182 -74.5t72 -195.5q0 -120 -72 -195t-182 -75zM132 625q38 89 104 89q19 0 39 -7.5t51 -22t57 -23.5l63 40q10 7 16.5 2t2.5 -17q-35 -91 -106 -91q-20 0 -38.5 7t-48.5 21.5t-61 25.5l-61 -40
q-11 -7 -17.5 -1.5t-0.5 17.5zM170 224q0 -91 33.5 -140.5t94.5 -49.5t94.5 49.5t33.5 141.5v61q0 191 -128 191t-128 -191v-62z" />
    <glyph glyph-name="odieresis" unicode="&#xf6;" horiz-adv-x="597" 
d="M298 -15q-110 0 -182 75t-72 195q0 121 72 195.5t182 74.5t182 -74.5t72 -195.5q0 -120 -72 -195t-182 -75zM123 657q0 29 21 49.5t51 20.5q29 0 50 -20.5t21 -49.5q0 -30 -21 -50.5t-50 -20.5q-30 0 -51 20.5t-21 50.5zM170 224q0 -91 33.5 -140.5t94.5 -49.5t94.5 49.5
t33.5 141.5v61q0 191 -128 191t-128 -191v-62zM330 657q0 29 21 49.5t50 20.5t50 -20.5t21 -49.5q0 -30 -21 -50.5t-50 -20.5t-50 20.5t-21 50.5z" />
    <glyph glyph-name="divide" unicode="&#xf7;" horiz-adv-x="510" 
d="M256 85q-27 0 -46 19t-19 45t19 45t46 19q26 0 45 -19t19 -45t-19 -45t-45 -19zM80 273q-15 0 -21.5 11.5t0 23t21.5 11.5h350q15 0 21.5 -11.5t0 -23t-21.5 -11.5h-350zM191 442q0 26 19 45t46 19q26 0 45 -19t19 -45q0 -27 -19 -45.5t-45 -18.5q-27 0 -46 18.5
t-19 45.5z" />
    <glyph glyph-name="oslash" unicode="&#xf8;" horiz-adv-x="597" 
d="M140 -17q-12 -18 -30.5 -17t-24 15.5t7.5 34.5l30 37q-79 77 -79 202q0 121 72 195.5t182 74.5q81 0 143 -42l17 27q16 24 40 15q22 -9 15 -30l-8 -15l-24 -30q71 -74 71 -195q0 -120 -72 -195t-182 -75q-75 0 -134 36zM170 224q0 -58 14 -100l114 145l100 154
q-33 54 -100 54q-128 0 -128 -191v-62zM207 79q33 -45 91 -45q61 0 94.5 49.5t33.5 141.5v61q0 51 -9 87l-104 -134z" />
    <glyph glyph-name="ugrave" unicode="&#xf9;" horiz-adv-x="608" 
d="M234 -15q-67 0 -104.5 38t-37.5 115v243q0 13 -9 21.5t-19.5 11.5t-19.5 9t-9 16q0 13 16 21l114 60q15 8 25.5 3t10.5 -20v-340q0 -58 21 -83t71 -25q60 0 113 36v291q0 13 -9 21.5t-19 12t-19 10t-9 16.5q0 12 17 21l113 58q16 8 25.5 3t9.5 -20v-388q0 -13 8.5 -21
t19.5 -11.5t19.5 -9.5t8.5 -16q0 -13 -16 -20l-113 -50q-16 -7 -26 -2t-10 21v37q-75 -59 -172 -59zM196 675q0 22 14.5 37t37.5 15q30 0 70 -46l66 -74q15 -19 3.5 -34t-32.5 -7l-108 49q-51 22 -51 60z" />
    <glyph glyph-name="uacute" unicode="&#xfa;" horiz-adv-x="608" 
d="M234 -15q-67 0 -104.5 38t-37.5 115v243q0 13 -9 21.5t-19.5 11.5t-19.5 9t-9 16q0 13 16 21l114 60q15 8 25.5 3t10.5 -20v-340q0 -58 21 -83t71 -25q60 0 113 36v291q0 13 -9 21.5t-19 12t-19 10t-9 16.5q0 12 17 21l113 58q16 8 25.5 3t9.5 -20v-388q0 -13 8.5 -21
t19.5 -11.5t19.5 -9.5t8.5 -16q0 -13 -16 -20l-113 -50q-16 -7 -26 -2t-10 21v37q-75 -59 -172 -59zM220 607l66 74q40 46 70 46q23 0 37.5 -15t14.5 -37q0 -38 -51 -60l-108 -49q-21 -8 -32.5 7t3.5 34z" />
    <glyph glyph-name="ucircumflex" unicode="&#xfb;" horiz-adv-x="608" 
d="M234 -15q-67 0 -104.5 38t-37.5 115v243q0 13 -9 21.5t-19.5 11.5t-19.5 9t-9 16q0 13 16 21l114 60q15 8 25.5 3t10.5 -20v-340q0 -58 21 -83t71 -25q60 0 113 36v291q0 13 -9 21.5t-19 12t-19 10t-9 16.5q0 12 17 21l113 58q16 8 25.5 3t9.5 -20v-388q0 -13 8.5 -21
t19.5 -11.5t19.5 -9.5t8.5 -16q0 -13 -16 -20l-113 -50q-16 -7 -26 -2t-10 21v37q-75 -59 -172 -59zM164 582q0 10 9 20l83 93q26 32 48 32q20 0 48 -32l83 -93q9 -10 9 -20q0 -11 -10 -14.5t-23 3.5l-107 64l-106 -64q-13 -7 -23.5 -3.5t-10.5 14.5z" />
    <glyph glyph-name="udieresis" unicode="&#xfc;" horiz-adv-x="608" 
d="M234 -15q-67 0 -104.5 38t-37.5 115v243q0 13 -9 21.5t-19.5 11.5t-19.5 9t-9 16q0 13 16 21l114 60q15 8 25.5 3t10.5 -20v-340q0 -58 21 -83t71 -25q60 0 113 36v291q0 13 -9 21.5t-19 12t-19 10t-9 16.5q0 12 17 21l113 58q16 8 25.5 3t9.5 -20v-388q0 -13 8.5 -21
t19.5 -11.5t19.5 -9.5t8.5 -16q0 -13 -16 -20l-113 -50q-16 -7 -26 -2t-10 21v37q-75 -59 -172 -59zM129 657q0 29 21 49.5t51 20.5q29 0 50 -20.5t21 -49.5q0 -30 -21 -50.5t-50 -20.5q-30 0 -51 20.5t-21 50.5zM336 657q0 29 21 49.5t50 20.5t50 -20.5t21 -49.5
q0 -30 -21 -50.5t-50 -20.5t-50 20.5t-21 50.5z" />
    <glyph glyph-name="yacute" unicode="&#xfd;" horiz-adv-x="525" 
d="M103 -177q-39 0 -65.5 19.5t-26.5 52.5q0 26 17.5 44t46.5 18q21 0 45.5 -14t40.5 -14q19 0 33 20t43 92l-170 375q-11 24 -26.5 40.5t-25 25t-9.5 16.5q0 13 16 13h193q15 0 15 -12q0 -9 -23.5 -28.5t-23.5 -35.5q0 -9 8 -28l103 -249l102 249q6 15 6 26
q0 17 -19.5 38.5t-19.5 28.5q0 11 15 11h127q15 0 15 -12q0 -8 -22.5 -29t-33.5 -47l-195 -446q-35 -81 -75.5 -117.5t-90.5 -36.5zM205 607l66 74q40 46 70 46q23 0 37.5 -15t14.5 -37q0 -38 -51 -60l-108 -49q-21 -8 -32.5 7t3.5 34z" />
    <glyph glyph-name="thorn" unicode="&#xfe;" horiz-adv-x="582" 
d="M66 -174q-21 0 -21 18q0 12 23.5 25t23.5 27v695q0 17 -14 25.5t-27.5 14.5t-13.5 17t16 20l112 57q16 8 26 2.5t10 -20.5v-236q75 54 153 54q85 0 133.5 -62t48.5 -175q0 -133 -64.5 -212t-169.5 -79q-53 0 -101 26v-127q0 -14 22.5 -26.5t22.5 -25.5q0 -18 -20 -18
h-160zM201 158q0 -54 24 -83.5t68 -29.5q60 0 94.5 54t34.5 153q0 199 -134 199q-44 0 -87 -25v-268z" />
    <glyph glyph-name="ydieresis" unicode="&#xff;" horiz-adv-x="525" 
d="M103 -177q-39 0 -65.5 19.5t-26.5 52.5q0 26 17.5 44t46.5 18q21 0 45.5 -14t40.5 -14q19 0 33 20t43 92l-170 375q-11 24 -26.5 40.5t-25 25t-9.5 16.5q0 13 16 13h193q15 0 15 -12q0 -9 -23.5 -28.5t-23.5 -35.5q0 -9 8 -28l103 -249l102 249q6 15 6 26
q0 17 -19.5 38.5t-19.5 28.5q0 11 15 11h127q15 0 15 -12q0 -8 -22.5 -29t-33.5 -47l-195 -446q-35 -81 -75.5 -117.5t-90.5 -36.5zM113 657q0 29 21 49.5t51 20.5q29 0 50 -20.5t21 -49.5q0 -30 -21 -50.5t-50 -20.5q-30 0 -51 20.5t-21 50.5zM320 657q0 29 21 49.5
t50 20.5t50 -20.5t21 -49.5q0 -30 -21 -50.5t-50 -20.5t-50 20.5t-21 50.5z" />
    <glyph glyph-name="Amacron" unicode="&#x100;" horiz-adv-x="691" 
d="M21 0q-18 0 -18 14q0 10 11 19t27 24t24 36l206 517q8 26 6 38.5t-8 27.5t-6 22q0 17 19 17h75q27 0 36 -20l235 -599q11 -28 34.5 -49t23.5 -32q0 -15 -17 -15h-200q-18 0 -18 14q0 12 24 31t24 36q0 9 -7 28l-34 88h-286l-34 -89q-7 -17 -7 -33q0 -18 23 -34t23 -27
q0 -14 -18 -14h-138zM192 247h247l-123 322zM197 781q-20 0 -28 14.5t0 29t28 14.5h280q19 0 26.5 -14.5t0 -29t-26.5 -14.5h-280z" />
    <glyph glyph-name="amacron" unicode="&#x101;" horiz-adv-x="530" 
d="M180 -15q-63 0 -98 35.5t-35 93.5q0 160 285 186v102q0 79 -62 79q-33 0 -57 -20t-35.5 -44.5t-31 -44.5t-44.5 -20q-23 0 -37.5 13.5t-14.5 37.5q0 48 60 85t162 37q87 0 128 -34.5t41 -103.5v-316q0 -24 17 -24q4 0 12 1.5t11 1.5q11 0 11 -14q0 -20 -23.5 -35.5
t-56.5 -15.5q-66 0 -77 75q-57 -75 -155 -75zM125 616q-20 0 -28 14.5t0 29t28 14.5h280q19 0 26.5 -14.5t0 -29t-26.5 -14.5h-280zM161 139q0 -32 20 -54t59 -22q45 0 92 41v153q-171 -22 -171 -118z" />
    <glyph glyph-name="Abreve" unicode="&#x102;" horiz-adv-x="691" 
d="M21 0q-18 0 -18 14q0 10 11 19t27 24t24 36l206 517q8 26 6 38.5t-8 27.5t-6 22q0 17 19 17h75q27 0 36 -20l235 -599q11 -28 34.5 -49t23.5 -32q0 -15 -17 -15h-200q-18 0 -18 14q0 12 24 31t24 36q0 9 -7 28l-34 88h-286l-34 -89q-7 -17 -7 -33q0 -18 23 -34t23 -27
q0 -14 -18 -14h-138zM192 247h247l-123 322zM196 854q-4 17 5.5 22t19.5 -5q41 -39 114 -39q70 0 112 39q10 10 19.5 5t5.5 -22q-13 -43 -48.5 -66.5t-88.5 -23.5q-55 0 -90.5 23.5t-48.5 66.5z" />
    <glyph glyph-name="abreve" unicode="&#x103;" horiz-adv-x="530" 
d="M180 -15q-63 0 -98 35.5t-35 93.5q0 160 285 186v102q0 79 -62 79q-33 0 -57 -20t-35.5 -44.5t-31 -44.5t-44.5 -20q-23 0 -37.5 13.5t-14.5 37.5q0 48 60 85t162 37q87 0 128 -34.5t41 -103.5v-316q0 -24 17 -24q4 0 12 1.5t11 1.5q11 0 11 -14q0 -20 -23.5 -35.5
t-56.5 -15.5q-66 0 -77 75q-57 -75 -155 -75zM125 702q-2 19 11.5 24t22.5 -10q20 -35 42.5 -50t59.5 -15t58.5 15t43.5 50q9 15 22 10t11 -24q-6 -60 -45 -92.5t-90 -32.5t-89.5 32.5t-46.5 92.5zM161 139q0 -32 20 -54t59 -22q45 0 92 41v153q-171 -22 -171 -118z" />
    <glyph glyph-name="Aogonek" unicode="&#x104;" horiz-adv-x="691" 
d="M21 0q-18 0 -18 14q0 10 11 19t27 24t24 36l206 517q8 26 6 38.5t-8 27.5t-6 22q0 17 19 17h75q27 0 36 -20l235 -599q11 -28 34.5 -49t23.5 -32q0 -15 -17 -15h-7q-51 0 -84 -31t-33 -66q0 -40 42 -40q19 0 55 18q10 6 15.5 1.5t0.5 -14.5q-18 -33 -50 -53t-72 -20
t-64.5 20.5t-24.5 54.5q0 40 33.5 73.5t90.5 56.5h-102q-18 0 -18 14q0 12 24 31t24 36q0 9 -7 28l-34 88h-286l-34 -89q-7 -17 -7 -33q0 -18 23 -34t23 -27q0 -14 -18 -14h-138zM192 247h247l-123 322z" />
    <glyph glyph-name="aogonek" unicode="&#x105;" horiz-adv-x="530" 
d="M47 114q0 160 285 186v102q0 79 -62 79q-33 0 -57 -20t-35.5 -44.5t-31 -44.5t-44.5 -20q-23 0 -37.5 13.5t-14.5 37.5q0 48 60 85t162 37q87 0 128 -34.5t41 -103.5v-316q0 -24 17 -24q4 0 12 1.5t11 1.5q11 0 11 -13q0 -27 -53 -50q-82 -36 -82 -83q0 -20 13.5 -30.5
t34.5 -10.5q30 0 68 17q12 5 16.5 0t-3.5 -16q-51 -69 -136 -69q-38 0 -60 19t-22 53q0 37 32 69t86 52q-43 14 -51 72q-57 -75 -155 -75q-63 0 -98 35.5t-35 93.5zM161 139q0 -32 20 -54t59 -22q45 0 92 41v153q-171 -22 -171 -118z" />
    <glyph glyph-name="Cacute" unicode="&#x106;" horiz-adv-x="705" 
d="M401 -15q-157 0 -252.5 104.5t-95.5 269.5t97 268t250 103q109 0 183.5 -51t74.5 -127q0 -37 -20 -60.5t-54 -23.5t-54.5 22t-20.5 60q0 8 1.5 24t1.5 23q0 37 -29.5 59.5t-85.5 22.5q-101 0 -164.5 -74t-63.5 -204q0 -138 70 -223.5t189 -85.5q56 0 102.5 19t75 38.5
t39.5 19.5q15 0 15 -18q0 -39 -51 -92q-77 -74 -208 -74zM300 790l122 63q24 14 48 14q22 0 35 -11.5t13 -29.5q0 -20 -16 -35t-47 -19l-141 -23q-24 -4 -30.5 12t16.5 29z" />
    <glyph glyph-name="cacute" unicode="&#x107;" horiz-adv-x="521" 
d="M283 -15q-103 0 -170.5 72.5t-67.5 193.5q0 123 69 198.5t178 75.5q78 0 133.5 -38t55.5 -96q0 -32 -17 -53t-49 -21q-30 0 -48 20t-18 52q0 8 1.5 23t1.5 20q0 46 -63 46q-67 0 -106.5 -46t-39.5 -137q0 -100 49 -158t136 -58q40 0 68.5 12.5t44 25t22.5 12.5
q13 0 13 -18q0 -42 -56 -84t-137 -42zM208 607l66 74q40 46 70 46q23 0 37.5 -15t14.5 -37q0 -38 -51 -60l-108 -49q-21 -8 -32.5 7t3.5 34z" />
    <glyph glyph-name="Ccircumflex" unicode="&#x108;" horiz-adv-x="705" 
d="M401 -15q-157 0 -252.5 104.5t-95.5 269.5t97 268t250 103q109 0 183.5 -51t74.5 -127q0 -37 -20 -60.5t-54 -23.5t-54.5 22t-20.5 60q0 8 1.5 24t1.5 23q0 37 -29.5 59.5t-85.5 22.5q-101 0 -164.5 -74t-63.5 -204q0 -138 70 -223.5t189 -85.5q56 0 102.5 19t75 38.5
t39.5 19.5q15 0 15 -18q0 -39 -51 -92q-77 -74 -208 -74zM261 779l113 91q23 20 47 0l115 -91q14 -12 7.5 -23.5t-22.5 -4.5l-124 44l-121 -44q-16 -7 -22.5 4.5t7.5 23.5z" />
    <glyph glyph-name="ccircumflex" unicode="&#x109;" horiz-adv-x="521" 
d="M283 -15q-103 0 -170.5 72.5t-67.5 193.5q0 123 69 198.5t178 75.5q78 0 133.5 -38t55.5 -96q0 -32 -17 -53t-49 -21q-30 0 -48 20t-18 52q0 8 1.5 23t1.5 20q0 46 -63 46q-67 0 -106.5 -46t-39.5 -137q0 -100 49 -158t136 -58q40 0 68.5 12.5t44 25t22.5 12.5
q13 0 13 -18q0 -42 -56 -84t-137 -42zM150 582q0 10 9 20l83 93q26 32 48 32q20 0 48 -32l83 -93q9 -10 9 -20q0 -11 -10 -14.5t-23 3.5l-107 64l-106 -64q-13 -7 -23.5 -3.5t-10.5 14.5z" />
    <glyph glyph-name="Cdotaccent" unicode="&#x10a;" horiz-adv-x="705" 
d="M401 -15q-157 0 -252.5 104.5t-95.5 269.5t97 268t250 103q109 0 183.5 -51t74.5 -127q0 -37 -20 -60.5t-54 -23.5t-54.5 22t-20.5 60q0 8 1.5 24t1.5 23q0 37 -29.5 59.5t-85.5 22.5q-101 0 -164.5 -74t-63.5 -204q0 -138 70 -223.5t189 -85.5q56 0 102.5 19t75 38.5
t39.5 19.5q15 0 15 -18q0 -39 -51 -92q-77 -74 -208 -74zM327 831q0 28 20.5 48t49.5 20t49.5 -20t20.5 -48t-20.5 -47.5t-49.5 -19.5t-49.5 19.5t-20.5 47.5z" />
    <glyph glyph-name="cdotaccent" unicode="&#x10b;" horiz-adv-x="521" 
d="M283 -15q-103 0 -170.5 72.5t-67.5 193.5q0 123 69 198.5t178 75.5q78 0 133.5 -38t55.5 -96q0 -32 -17 -53t-49 -21q-30 0 -48 20t-18 52q0 8 1.5 23t1.5 20q0 46 -63 46q-67 0 -106.5 -46t-39.5 -137q0 -100 49 -158t136 -58q40 0 68.5 12.5t44 25t22.5 12.5
q13 0 13 -18q0 -42 -56 -84t-137 -42zM217 640q0 28 20.5 48t49.5 20t49.5 -20t20.5 -48t-20.5 -47.5t-49.5 -19.5t-49.5 19.5t-20.5 47.5z" />
    <glyph glyph-name="Ccaron" unicode="&#x10c;" horiz-adv-x="705" 
d="M401 -15q-157 0 -252.5 104.5t-95.5 269.5t97 268t250 103q109 0 183.5 -51t74.5 -127q0 -37 -20 -60.5t-54 -23.5t-54.5 22t-20.5 60q0 8 1.5 24t1.5 23q0 37 -29.5 59.5t-85.5 22.5q-101 0 -164.5 -74t-63.5 -204q0 -138 70 -223.5t189 -85.5q56 0 102.5 19t75 38.5
t39.5 19.5q15 0 15 -18q0 -39 -51 -92q-77 -74 -208 -74zM259 850q-12 11 -6 22t22 5l121 -45l123 45q15 5 21.5 -4t-5.5 -22l-115 -93q-24 -20 -47 0z" />
    <glyph glyph-name="ccaron" unicode="&#x10d;" horiz-adv-x="521" 
d="M283 -15q-103 0 -170.5 72.5t-67.5 193.5q0 123 69 198.5t178 75.5q78 0 133.5 -38t55.5 -96q0 -32 -17 -53t-49 -21q-30 0 -48 20t-18 52q0 8 1.5 23t1.5 20q0 46 -63 46q-67 0 -106.5 -46t-39.5 -137q0 -100 49 -158t136 -58q40 0 68.5 12.5t44 25t22.5 12.5
q13 0 13 -18q0 -42 -56 -84t-137 -42zM151 711q0 11 10.5 14.5t23.5 -3.5l107 -63l106 63q13 7 23 3.5t10 -14.5q0 -9 -9 -20l-82 -92q-29 -32 -48 -32q-21 0 -49 32l-83 92q-9 11 -9 20z" />
    <glyph glyph-name="Dcaron" unicode="&#x10e;" horiz-adv-x="751" 
d="M82 0q-9 0 -14.5 5t-5.5 11q0 12 13 20.5t26 19.5t13 30v543q0 23 -26 38.5t-26 31.5q0 6 5.5 11t14.5 5h231q182 0 283.5 -94t101.5 -262q0 -170 -101.5 -264.5t-281.5 -94.5h-233zM214 850q-12 11 -6 22t22 5l121 -45l123 45q15 5 21.5 -4t-5.5 -22l-115 -93
q-23 -20 -47 0zM233 77q0 -28 29 -28h32q134 0 201.5 75t67.5 233q0 147 -69 228t-203 81h-29q-29 0 -29 -29v-560z" />
    <glyph glyph-name="dcaron" unicode="&#x10f;" horiz-adv-x="590" 
d="M247 -15q-88 0 -144.5 67t-56.5 182q0 121 67.5 201t179.5 80q54 0 97 -21v94q0 13 -9 21.5t-19 11.5t-19 9.5t-9 17.5q0 14 17 22l112 55q17 8 27 4t10 -19v-595q0 -20 27.5 -31.5t27.5 -26.5q0 -14 -16 -21l-113 -47q-16 -7 -26 -2t-10 21v40q-49 -63 -143 -63z
M160 276q0 -107 39 -161t102 -54q43 0 89 30v279q0 98 -94 98q-65 0 -100.5 -48.5t-35.5 -143.5zM544 669q0 28 19 46t47 18q30 0 51.5 -22t21.5 -62q0 -52 -35 -89.5t-88 -41.5q-16 -2 -19.5 10t11.5 17q29 9 45.5 22t16.5 25q0 9 -11 16t-24 11.5t-24 17t-11 32.5z" />
    <glyph glyph-name="Dcroat" unicode="&#x110;" horiz-adv-x="763" 
d="M50 360q-20 -1 -28 12.5t0 27t28 12.5l76 -4v221q0 23 -26 38.5t-26 31.5q0 6 5.5 11t14.5 5h231q182 0 283.5 -94t101.5 -262q0 -170 -101.5 -264.5t-281.5 -94.5h-233q-9 0 -14.5 5t-5.5 11q0 12 13 20.5t26 19.5t13 30v280zM245 77q0 -28 29 -28h32q134 0 201.5 75
t67.5 233q0 147 -69 228t-203 81h-29q-29 0 -29 -29v-230l143 5q20 0 28.5 -13t0 -26t-28.5 -13l-143 7v-290z" />
    <glyph glyph-name="dcroat" unicode="&#x111;" horiz-adv-x="590" 
d="M264 538q-15 0 -15 14v10q0 14 15 14h126v12q0 13 -9 21.5t-19 11.5t-19 9.5t-9 17.5q0 14 17 22l112 55q17 8 27 4t10 -19v-134h63q14 0 14 -14v-10q0 -14 -14 -14h-63v-423q0 -20 27.5 -31.5t27.5 -26.5q0 -14 -16 -21l-113 -47q-16 -7 -26 -2t-10 21v40
q-49 -63 -143 -63q-88 0 -144.5 67t-56.5 182q0 121 67.5 201t179.5 80q54 0 97 -21v44h-126zM160 276q0 -107 39 -161t102 -54q43 0 89 30v279q0 98 -94 98q-65 0 -100.5 -48.5t-35.5 -143.5z" />
    <glyph glyph-name="Emacron" unicode="&#x112;" horiz-adv-x="671" 
d="M82 0q-9 0 -14.5 5t-5.5 11q0 14 26 30t26 40v543q0 15 -8 25t-18 14.5t-18 12t-8 18.5q0 6 5.5 11t14.5 5h474q51 0 51 -48v-131q0 -19 -14 -22t-24 12l-60 95q-27 43 -81 43h-166q-29 0 -29 -29v-228h120q39 0 57 33l39 61q11 18 23.5 14.5t12.5 -24.5v-219
q0 -21 -12.5 -24.5t-23.5 15.5l-39 61q-17 32 -57 32h-120v-267q0 -21 9 -29.5t29 -8.5h154q31 0 50 9.5t35 34.5l58 95q10 17 24 14t14 -22v-132q0 -50 -52 -50h-472zM229 781q-20 0 -28 14.5t0 29t28 14.5h280q19 0 26.5 -14.5t0 -29t-26.5 -14.5h-280z" />
    <glyph glyph-name="emacron" unicode="&#x113;" horiz-adv-x="536" 
d="M290 -15q-107 0 -176 74t-69 199q0 120 66 193.5t172 73.5q91 0 147 -52.5t56 -123.5q0 -31 -12 -44t-36 -13h-291q2 -103 49.5 -160t127.5 -57q43 0 76 16.5t52 32.5t28 16q11 0 11 -16q0 -12 -5 -24q-19 -50 -72 -82.5t-124 -32.5zM137 616q-20 0 -28 14.5t0 29
t28 14.5h280q19 0 26.5 -14.5t0 -29t-26.5 -14.5h-280zM148 340h199q30 0 30 27q0 47 -25 79t-77 32q-54 0 -88.5 -36t-38.5 -102z" />
    <glyph glyph-name="Ebreve" unicode="&#x114;" horiz-adv-x="671" 
d="M82 0q-9 0 -14.5 5t-5.5 11q0 14 26 30t26 40v543q0 15 -8 25t-18 14.5t-18 12t-8 18.5q0 6 5.5 11t14.5 5h474q51 0 51 -48v-131q0 -19 -14 -22t-24 12l-60 95q-27 43 -81 43h-166q-29 0 -29 -29v-228h120q39 0 57 33l39 61q11 18 23.5 14.5t12.5 -24.5v-219
q0 -21 -12.5 -24.5t-23.5 15.5l-39 61q-17 32 -57 32h-120v-267q0 -21 9 -29.5t29 -8.5h154q31 0 50 9.5t35 34.5l58 95q10 17 24 14t14 -22v-132q0 -50 -52 -50h-472zM227 854q-4 17 5.5 22t19.5 -5q41 -39 114 -39q70 0 112 39q10 10 19.5 5t5.5 -22q-13 -43 -48.5 -66.5
t-88.5 -23.5q-55 0 -90.5 23.5t-48.5 66.5z" />
    <glyph glyph-name="ebreve" unicode="&#x115;" horiz-adv-x="536" 
d="M290 -15q-107 0 -176 74t-69 199q0 120 66 193.5t172 73.5q91 0 147 -52.5t56 -123.5q0 -31 -12 -44t-36 -13h-291q2 -103 49.5 -160t127.5 -57q43 0 76 16.5t52 32.5t28 16q11 0 11 -16q0 -12 -5 -24q-19 -50 -72 -82.5t-124 -32.5zM138 702q-2 19 11.5 24t22.5 -10
q20 -35 42.5 -50t59.5 -15t58.5 15t43.5 50q9 15 22 10t11 -24q-6 -60 -45 -92.5t-90 -32.5t-89.5 32.5t-46.5 92.5zM148 340h199q30 0 30 27q0 47 -25 79t-77 32q-54 0 -88.5 -36t-38.5 -102z" />
    <glyph glyph-name="Edotaccent" unicode="&#x116;" horiz-adv-x="671" 
d="M82 0q-9 0 -14.5 5t-5.5 11q0 14 26 30t26 40v543q0 15 -8 25t-18 14.5t-18 12t-8 18.5q0 6 5.5 11t14.5 5h474q51 0 51 -48v-131q0 -19 -14 -22t-24 12l-60 95q-27 43 -81 43h-166q-29 0 -29 -29v-228h120q39 0 57 33l39 61q11 18 23.5 14.5t12.5 -24.5v-219
q0 -21 -12.5 -24.5t-23.5 15.5l-39 61q-17 32 -57 32h-120v-267q0 -21 9 -29.5t29 -8.5h154q31 0 50 9.5t35 34.5l58 95q10 17 24 14t14 -22v-132q0 -50 -52 -50h-472zM295 831q0 28 20.5 48t49.5 20t49.5 -20t20.5 -48t-20.5 -47.5t-49.5 -19.5t-49.5 19.5t-20.5 47.5z" />
    <glyph glyph-name="edotaccent" unicode="&#x117;" horiz-adv-x="536" 
d="M290 -15q-107 0 -176 74t-69 199q0 120 66 193.5t172 73.5q91 0 147 -52.5t56 -123.5q0 -31 -12 -44t-36 -13h-291q2 -103 49.5 -160t127.5 -57q43 0 76 16.5t52 32.5t28 16q11 0 11 -16q0 -12 -5 -24q-19 -50 -72 -82.5t-124 -32.5zM148 340h199q30 0 30 27q0 47 -25 79
t-77 32q-54 0 -88.5 -36t-38.5 -102zM203 640q0 28 20.5 48t49.5 20t49.5 -20t20.5 -48t-20.5 -47.5t-49.5 -19.5t-49.5 19.5t-20.5 47.5z" />
    <glyph glyph-name="Eogonek" unicode="&#x118;" horiz-adv-x="671" 
d="M82 0q-9 0 -14.5 5t-5.5 11q0 14 26 30t26 40v543q0 15 -8 25t-18 14.5t-18 12t-8 18.5q0 6 5.5 11t14.5 5h474q51 0 51 -48v-131q0 -19 -14 -22t-24 12l-60 95q-27 43 -81 43h-166q-29 0 -29 -29v-228h120q39 0 57 33l39 61q11 18 23.5 14.5t12.5 -24.5v-219
q0 -21 -12.5 -24.5t-23.5 15.5l-39 61q-17 32 -57 32h-120v-267q0 -21 9 -29.5t29 -8.5h154q31 0 50 9.5t35 34.5l58 95q10 17 24 14t14 -22v-132q0 -50 -52 -50h-1q-51 0 -84 -31t-33 -66q0 -40 42 -40q19 0 55 18q10 6 15.5 1.5t0.5 -14.5q-18 -33 -50 -53t-72 -20
t-64.5 20.5t-24.5 54.5q0 40 33.5 73.5t90.5 56.5h-380z" />
    <glyph glyph-name="eogonek" unicode="&#x119;" horiz-adv-x="536" 
d="M45 258q0 120 66 193.5t172 73.5q91 0 147 -52.5t56 -123.5q0 -31 -12 -44t-36 -13h-291q2 -103 49.5 -160t127.5 -57q43 0 76 16.5t52 32.5t28 16q11 0 11 -16q0 -12 -5 -24q-27 -71 -127 -106q-36 -13 -57 -38.5t-21 -52.5q0 -40 41 -40q20 0 56 18q10 6 15.5 1.5
t0.5 -14.5q-18 -33 -50.5 -53t-74.5 -20q-38 0 -62 20.5t-24 54.5q0 69 92 115q-101 6 -165.5 79.5t-64.5 193.5zM148 340h199q30 0 30 27q0 47 -25 79t-77 32q-54 0 -88.5 -36t-38.5 -102z" />
    <glyph glyph-name="Ecaron" unicode="&#x11a;" horiz-adv-x="671" 
d="M82 0q-9 0 -14.5 5t-5.5 11q0 14 26 30t26 40v543q0 15 -8 25t-18 14.5t-18 12t-8 18.5q0 6 5.5 11t14.5 5h474q51 0 51 -48v-131q0 -19 -14 -22t-24 12l-60 95q-27 43 -81 43h-166q-29 0 -29 -29v-228h120q39 0 57 33l39 61q11 18 23.5 14.5t12.5 -24.5v-219
q0 -21 -12.5 -24.5t-23.5 15.5l-39 61q-17 32 -57 32h-120v-267q0 -21 9 -29.5t29 -8.5h154q31 0 50 9.5t35 34.5l58 95q10 17 24 14t14 -22v-132q0 -50 -52 -50h-472zM227 850q-12 11 -6 22t22 5l121 -45l123 45q15 5 21.5 -4t-5.5 -22l-115 -93q-24 -20 -47 0z" />
    <glyph glyph-name="ecaron" unicode="&#x11b;" horiz-adv-x="536" 
d="M290 -15q-107 0 -176 74t-69 199q0 120 66 193.5t172 73.5q91 0 147 -52.5t56 -123.5q0 -31 -12 -44t-36 -13h-291q2 -103 49.5 -160t127.5 -57q43 0 76 16.5t52 32.5t28 16q11 0 11 -16q0 -12 -5 -24q-19 -50 -72 -82.5t-124 -32.5zM136 711q0 11 10 14.5t24 -3.5
l107 -63l106 63q13 7 23 3.5t10 -14.5q0 -9 -9 -20l-82 -92q-29 -32 -48 -32q-21 0 -49 32l-83 92q-9 11 -9 20zM148 340h199q30 0 30 27q0 47 -25 79t-77 32q-54 0 -88.5 -36t-38.5 -102z" />
    <glyph glyph-name="Gcircumflex" unicode="&#x11c;" horiz-adv-x="746" 
d="M376 -15q-146 0 -235 100t-89 254q0 166 102 278.5t262 112.5q108 0 182.5 -51t74.5 -128q0 -37 -19 -60.5t-54 -23.5q-34 0 -55 23t-21 63q0 7 1 22.5t1 21.5q0 38 -29 61t-85 23q-105 0 -171 -80.5t-66 -213.5q0 -138 70.5 -220.5t195.5 -82.5q78 0 131 26v128
q0 20 -17 34t-38 20t-38 17.5t-17 27.5q0 23 29 23h155q31 0 31 -27v-326q0 -17 -13 -20.5t-28 12.5l-37 42q-16 18 -44 -1q-76 -55 -179 -55zM271 779l113 91q23 20 47 0l115 -91q14 -12 7.5 -23.5t-22.5 -4.5l-124 44l-121 -44q-16 -7 -22.5 4.5t7.5 23.5z" />
    <glyph glyph-name="gcircumflex" unicode="&#x11d;" horiz-adv-x="535" 
d="M243 -177q-101 0 -155 31t-54 78q0 35 31.5 66t98.5 51l-13 2q-42 6 -64.5 28t-22.5 49q0 26 21.5 47t58.5 30q-96 48 -96 140q0 74 62.5 120t154.5 46h223q14 0 15.5 -11t-10.5 -17l-55 -26q-14 -6 -4 -21q33 -38 33 -91q0 -72 -60.5 -118t-146.5 -46q-21 0 -55 4
q-22 3 -33.5 -8.5t-5 -26t28.5 -17.5l159 -23q78 -11 113.5 -46.5t35.5 -85.5q0 -72 -68.5 -113.5t-191.5 -41.5zM127 582q0 10 9 20l83 93q26 32 48 32q20 0 48 -32l83 -93q9 -10 9 -20q0 -11 -10 -14.5t-23 3.5l-107 64l-106 -64q-13 -7 -23.5 -3.5t-10.5 14.5zM143 -52
q0 -40 30.5 -62.5t91.5 -22.5q62 0 97 26t35 67q0 60 -92 73l-91 13q-71 -30 -71 -94zM163 340q0 -113 95 -113q94 0 94 113v15q0 52 -24.5 81.5t-69.5 29.5q-46 0 -70.5 -29.5t-24.5 -81.5v-15z" />
    <glyph glyph-name="Gbreve" unicode="&#x11e;" horiz-adv-x="746" 
d="M376 -15q-146 0 -235 100t-89 254q0 166 102 278.5t262 112.5q108 0 182.5 -51t74.5 -128q0 -37 -19 -60.5t-54 -23.5q-34 0 -55 23t-21 63q0 7 1 22.5t1 21.5q0 38 -29 61t-85 23q-105 0 -171 -80.5t-66 -213.5q0 -138 70.5 -220.5t195.5 -82.5q78 0 131 26v128
q0 20 -17 34t-38 20t-38 17.5t-17 27.5q0 23 29 23h155q31 0 31 -27v-326q0 -17 -13 -20.5t-28 12.5l-37 42q-16 18 -44 -1q-76 -55 -179 -55zM270 854q-4 17 5.5 22t19.5 -5q41 -39 114 -39q70 0 112 39q10 10 19.5 5t5.5 -22q-13 -43 -48.5 -66.5t-88.5 -23.5
q-55 0 -90.5 23.5t-48.5 66.5z" />
    <glyph glyph-name="gbreve" unicode="&#x11f;" horiz-adv-x="535" 
d="M243 -177q-101 0 -155 31t-54 78q0 35 31.5 66t98.5 51l-13 2q-42 6 -64.5 28t-22.5 49q0 26 21.5 47t58.5 30q-96 48 -96 140q0 74 62.5 120t154.5 46h223q14 0 15.5 -11t-10.5 -17l-55 -26q-14 -6 -4 -21q33 -38 33 -91q0 -72 -60.5 -118t-146.5 -46q-21 0 -55 4
q-22 3 -33.5 -8.5t-5 -26t28.5 -17.5l159 -23q78 -11 113.5 -46.5t35.5 -85.5q0 -72 -68.5 -113.5t-191.5 -41.5zM128 702q-2 19 11.5 24t22.5 -10q20 -35 42.5 -50t59.5 -15t58.5 15t43.5 50q9 15 22 10t11 -24q-6 -60 -45 -92.5t-90 -32.5t-89.5 32.5t-46.5 92.5zM143 -52
q0 -40 30.5 -62.5t91.5 -22.5q62 0 97 26t35 67q0 60 -92 73l-91 13q-71 -30 -71 -94zM163 340q0 -113 95 -113q94 0 94 113v15q0 52 -24.5 81.5t-69.5 29.5q-46 0 -70.5 -29.5t-24.5 -81.5v-15z" />
    <glyph glyph-name="Gdotaccent" unicode="&#x120;" horiz-adv-x="746" 
d="M376 -15q-146 0 -235 100t-89 254q0 166 102 278.5t262 112.5q108 0 182.5 -51t74.5 -128q0 -37 -19 -60.5t-54 -23.5q-34 0 -55 23t-21 63q0 7 1 22.5t1 21.5q0 38 -29 61t-85 23q-105 0 -171 -80.5t-66 -213.5q0 -138 70.5 -220.5t195.5 -82.5q78 0 131 26v128
q0 20 -17 34t-38 20t-38 17.5t-17 27.5q0 23 29 23h155q31 0 31 -27v-326q0 -17 -13 -20.5t-28 12.5l-37 42q-16 18 -44 -1q-76 -55 -179 -55zM338 831q0 28 20.5 48t49.5 20t49.5 -20t20.5 -48t-20.5 -47.5t-49.5 -19.5t-49.5 19.5t-20.5 47.5z" />
    <glyph glyph-name="gdotaccent" unicode="&#x121;" horiz-adv-x="535" 
d="M243 -177q-101 0 -155 31t-54 78q0 35 31.5 66t98.5 51l-13 2q-42 6 -64.5 28t-22.5 49q0 26 21.5 47t58.5 30q-96 48 -96 140q0 74 62.5 120t154.5 46h223q14 0 15.5 -11t-10.5 -17l-55 -26q-14 -6 -4 -21q33 -38 33 -91q0 -72 -60.5 -118t-146.5 -46q-21 0 -55 4
q-22 3 -33.5 -8.5t-5 -26t28.5 -17.5l159 -23q78 -11 113.5 -46.5t35.5 -85.5q0 -72 -68.5 -113.5t-191.5 -41.5zM143 -52q0 -40 30.5 -62.5t91.5 -22.5q62 0 97 26t35 67q0 60 -92 73l-91 13q-71 -30 -71 -94zM163 340q0 -113 95 -113q94 0 94 113v15q0 52 -24.5 81.5
t-69.5 29.5q-46 0 -70.5 -29.5t-24.5 -81.5v-15zM193 640q0 28 20.5 48t49.5 20t49.5 -20t20.5 -48t-20.5 -47.5t-49.5 -19.5t-49.5 19.5t-20.5 47.5z" />
    <glyph glyph-name="uni0122" unicode="&#x122;" horiz-adv-x="746" 
d="M376 -15q-146 0 -235 100t-89 254q0 166 102 278.5t262 112.5q108 0 182.5 -51t74.5 -128q0 -37 -19 -60.5t-54 -23.5q-34 0 -55 23t-21 63q0 7 1 22.5t1 21.5q0 38 -29 61t-85 23q-105 0 -171 -80.5t-66 -213.5q0 -138 70.5 -220.5t195.5 -82.5q78 0 131 26v128
q0 20 -17 34t-38 20t-38 17.5t-17 27.5q0 23 29 23h155q31 0 31 -27v-326q0 -17 -13 -20.5t-28 12.5l-37 42q-16 18 -44 -1q-76 -55 -179 -55zM314 -114q0 28 19 46t47 18q30 0 51.5 -22t21.5 -62q0 -52 -35 -89.5t-88 -41.5q-16 -2 -19.5 10t11.5 17q29 9 45.5 22t16.5 25
q0 9 -11 16t-24 11.5t-24 17t-11 32.5z" />
    <glyph glyph-name="uni0123" unicode="&#x123;" horiz-adv-x="535" 
d="M243 -177q-101 0 -155 31t-54 78q0 35 31.5 66t98.5 51l-13 2q-42 6 -64.5 28t-22.5 49q0 26 21.5 47t58.5 30q-96 48 -96 140q0 74 62.5 120t154.5 46h223q14 0 15.5 -11t-10.5 -17l-55 -26q-14 -6 -4 -21q33 -38 33 -91q0 -72 -60.5 -118t-146.5 -46q-21 0 -55 4
q-22 3 -33.5 -8.5t-5 -26t28.5 -17.5l159 -23q78 -11 113.5 -46.5t35.5 -85.5q0 -72 -68.5 -113.5t-191.5 -41.5zM143 -52q0 -40 30.5 -62.5t91.5 -22.5q62 0 97 26t35 67q0 60 -92 73l-91 13q-71 -30 -71 -94zM163 340q0 -113 95 -113q94 0 94 113v15q0 52 -24.5 81.5
t-69.5 29.5q-46 0 -70.5 -29.5t-24.5 -81.5v-15zM200 622q0 52 35 89.5t88 41.5q16 2 19.5 -10t-11.5 -17q-29 -9 -45.5 -22t-16.5 -25q0 -9 11 -16t24 -11.5t24 -17t11 -32.5q0 -28 -19 -46t-47 -18q-30 0 -51.5 22t-21.5 62z" />
    <glyph glyph-name="Hcircumflex" unicode="&#x124;" horiz-adv-x="796" 
d="M533 0q-21 0 -21 16t25.5 31.5t25.5 38.5v253h-330v-253q0 -16 8 -26.5t17.5 -14.5t17.5 -11.5t8 -17.5q0 -16 -20 -16h-182q-9 0 -14.5 5t-5.5 11q0 12 13 20.5t26 19.5t13 30v543q0 23 -26 38.5t-26 31.5q0 6 5.5 11t14.5 5h182q20 0 20 -16q0 -12 -13 -20.5
t-25.5 -19.5t-12.5 -30v-239h330v239q0 23 -25.5 38.5t-25.5 31.5t21 16h180q20 0 20 -16q0 -14 -25.5 -30t-25.5 -40v-543q0 -16 8 -26.5t17.5 -14.5t17.5 -11.5t8 -17.5q0 -16 -20 -16h-180zM263 779l113 91q23 20 47 0l115 -91q14 -12 7.5 -23.5t-22.5 -4.5l-124 44
l-121 -44q-16 -7 -22.5 4.5t7.5 23.5z" />
    <glyph glyph-name="hcircumflex" unicode="&#x125;" horiz-adv-x="610" 
d="M64 0q-20 0 -20 17q0 13 23 26t23 26v523q0 12 -8.5 19.5t-19 11t-19 10t-8.5 15.5q0 12 16 20l113 57q13 7 24.5 2.5t11.5 -20.5v-248q116 66 207 66q116 0 116 -136v-320q0 -14 23 -26.5t23 -25.5q0 -7 -5.5 -12t-14.5 -5h-161q-9 0 -14.5 5t-5.5 12q0 13 23 26t23 26
v269q0 59 -20 84t-67 25q-54 0 -127 -32v-346q0 -13 22 -25.5t22 -26.5q0 -17 -20 -17h-160zM18 779l113 91q23 20 47 0l115 -91q14 -12 7.5 -23.5t-22.5 -4.5l-124 44l-121 -44q-16 -7 -22.5 4.5t7.5 23.5z" />
    <glyph glyph-name="Hbar" unicode="&#x126;" horiz-adv-x="798" 
d="M535 0q-21 0 -21 16t25.5 31.5t25.5 38.5v253h-330v-253q0 -16 8 -26.5t17.5 -14.5t17.5 -11.5t8 -17.5q0 -16 -20 -16h-181q-9 0 -15 5t-6 11q0 12 13 20.5t26 19.5t13 30v410l-51 -1q-20 0 -28 13t0 26t28 13l51 -1v83q0 23 -26 38.5t-26 31.5q0 6 6 11t15 5h181
q20 0 20 -16q0 -12 -13 -20.5t-25.5 -19.5t-12.5 -30v-86l167 -3l163 4v85q0 23 -25.5 38.5t-25.5 31.5t21 16h180q20 0 20 -16q0 -14 -25.5 -30t-25.5 -40v-83l42 1q20 0 28 -13t0 -26t-28 -13l-42 1v-410q0 -16 8 -26.5t17.5 -14.5t17.5 -11.5t8 -17.5q0 -16 -20 -16h-180
zM235 390h330v109l-163 5l-167 -4v-110z" />
    <glyph glyph-name="hbar" unicode="&#x127;" horiz-adv-x="610" 
d="M-2 541q-20 -2 -28 11.5t0 26.5t28 12l92 -5v6q0 12 -8.5 19.5t-19 11t-19 10t-8.5 15.5q0 12 16 20l113 57q13 7 24.5 2.5t11.5 -20.5v-121l136 5q20 0 28.5 -13t0 -26t-28.5 -11l-136 6v-88q116 66 207 66q116 0 116 -136v-320q0 -14 23 -26.5t23 -25.5q0 -7 -5.5 -12
t-14.5 -5h-161q-9 0 -14.5 5t-5.5 12q0 13 23 26t23 26v269q0 59 -20 84t-67 25q-54 0 -127 -32v-346q0 -13 22 -25.5t22 -26.5q0 -17 -20 -17h-160q-20 0 -20 17q0 13 23 26t23 26v477z" />
    <glyph glyph-name="Itilde" unicode="&#x128;" horiz-adv-x="346" 
d="M82 0q-9 0 -14.5 5t-5.5 11q0 12 13 20.5t26 19.5t13 30v543q0 15 -8 25t-18 14.5t-18 12t-8 18.5q0 6 5.5 11t14.5 5h182q20 0 20 -16q0 -17 -25.5 -32t-25.5 -38v-543q0 -25 25.5 -40.5t25.5 -29.5q0 -16 -20 -16h-182zM14 801q42 79 101 79q13 0 32.5 -7.5t50.5 -22.5
t52 -23l62 40q11 7 19 0t1 -20q-37 -79 -99 -79q-14 0 -33.5 7t-51.5 22t-52 23l-61 -38q-12 -7 -20 -0.5t-1 19.5z" />
    <glyph glyph-name="itilde" unicode="&#x129;" horiz-adv-x="296" 
d="M71 0q-9 0 -14.5 5t-5.5 12q0 13 23.5 25.5t23.5 26.5v319q0 12 -9 20t-19 11t-19 9.5t-9 16.5t16 20l110 55q14 9 26.5 4t12.5 -22v-433q0 -13 23 -26t23 -26q0 -7 -6 -12t-15 -5h-161zM-20 625q38 89 104 89q19 0 39 -7.5t51 -22t57 -23.5l63 40q10 7 16.5 2t2.5 -17
q-35 -91 -106 -91q-20 0 -38.5 7t-48.5 21.5t-61 25.5l-61 -40q-11 -7 -17.5 -1.5t-0.5 17.5z" />
    <glyph glyph-name="Imacron" unicode="&#x12a;" horiz-adv-x="346" 
d="M82 0q-9 0 -14.5 5t-5.5 11q0 12 13 20.5t26 19.5t13 30v543q0 15 -8 25t-18 14.5t-18 12t-8 18.5q0 6 5.5 11t14.5 5h182q20 0 20 -16q0 -17 -25.5 -32t-25.5 -38v-543q0 -25 25.5 -40.5t25.5 -29.5q0 -16 -20 -16h-182zM37 781q-20 0 -28 14.5t0 29t28 14.5h280
q19 0 26.5 -14.5t0 -29t-26.5 -14.5h-280z" />
    <glyph glyph-name="imacron" unicode="&#x12b;" horiz-adv-x="296" 
d="M71 0q-9 0 -14.5 5t-5.5 12q0 13 23.5 25.5t23.5 26.5v319q0 12 -9 20t-19 11t-19 9.5t-9 16.5t16 20l110 55q14 9 26.5 4t12.5 -22v-433q0 -13 23 -26t23 -26q0 -7 -6 -12t-15 -5h-161zM6 616q-20 0 -28 14.5t0 29t28 14.5h280q19 0 26.5 -14.5t0 -29t-26.5 -14.5h-280z
" />
    <glyph glyph-name="Ibreve" unicode="&#x12c;" horiz-adv-x="346" 
d="M82 0q-9 0 -14.5 5t-5.5 11q0 12 13 20.5t26 19.5t13 30v543q0 15 -8 25t-18 14.5t-18 12t-8 18.5q0 6 5.5 11t14.5 5h182q20 0 20 -16q0 -17 -25.5 -32t-25.5 -38v-543q0 -25 25.5 -40.5t25.5 -29.5q0 -16 -20 -16h-182zM36 854q-4 17 5.5 22t19.5 -5q41 -39 114 -39
q70 0 112 39q10 10 19.5 5t5.5 -22q-13 -43 -48.5 -66.5t-88.5 -23.5q-55 0 -90.5 23.5t-48.5 66.5z" />
    <glyph glyph-name="ibreve" unicode="&#x12d;" horiz-adv-x="296" 
d="M71 0q-9 0 -14.5 5t-5.5 12q0 13 23.5 25.5t23.5 26.5v319q0 12 -9 20t-19 11t-19 9.5t-9 16.5t16 20l110 55q14 9 26.5 4t12.5 -22v-433q0 -13 23 -26t23 -26q0 -7 -6 -12t-15 -5h-161zM7 702q-2 19 11.5 24t22.5 -10q20 -35 42.5 -50t59.5 -15t58.5 15t43.5 50
q9 15 22 10t11 -24q-6 -60 -45 -92.5t-90 -32.5t-89.5 32.5t-46.5 92.5z" />
    <glyph glyph-name="Iogonek" unicode="&#x12e;" horiz-adv-x="346" 
d="M82 0q-9 0 -14.5 5t-5.5 11q0 12 13 20.5t26 19.5t13 30v543q0 15 -8 25t-18 14.5t-18 12t-8 18.5q0 6 5.5 11t14.5 5h182q20 0 20 -16q0 -17 -25.5 -32t-25.5 -38v-543q0 -25 25.5 -40.5t25.5 -29.5q0 -16 -20 -16h-2q-51 0 -84 -31t-33 -66q0 -40 42 -40q19 0 55 18
q10 6 15.5 1.5t0.5 -14.5q-18 -33 -50 -53t-72 -20t-64.5 20.5t-24.5 54.5q0 40 33.5 73.5t90.5 56.5h-89z" />
    <glyph glyph-name="iogonek" unicode="&#x12f;" horiz-adv-x="296" 
d="M71 0q-9 0 -14.5 5t-5.5 12q0 13 23.5 25.5t23.5 26.5v319q0 12 -9 20t-19 11t-19 9.5t-9 16.5t16 20l110 55q14 9 26.5 4t12.5 -22v-433q0 -13 23 -26t23 -26q0 -7 -6 -12t-15 -5h-2q-51 0 -84 -31t-33 -66q0 -40 42 -40q19 0 55 18q10 6 15.5 1.5t0.5 -14.5
q-18 -33 -50 -53t-72 -20t-64.5 20.5t-24.5 54.5q0 40 33.5 73.5t90.5 56.5h-68zM72 640q0 28 20.5 48t49.5 20t49.5 -20t20.5 -48t-20.5 -47.5t-49.5 -19.5t-49.5 19.5t-20.5 47.5z" />
    <glyph glyph-name="Idotaccent" unicode="&#x130;" horiz-adv-x="346" 
d="M82 0q-9 0 -14.5 5t-5.5 11q0 12 13 20.5t26 19.5t13 30v543q0 15 -8 25t-18 14.5t-18 12t-8 18.5q0 6 5.5 11t14.5 5h182q20 0 20 -16q0 -17 -25.5 -32t-25.5 -38v-543q0 -25 25.5 -40.5t25.5 -29.5q0 -16 -20 -16h-182zM103 831q0 28 20.5 48t49.5 20t49.5 -20
t20.5 -48t-20.5 -47.5t-49.5 -19.5t-49.5 19.5t-20.5 47.5z" />
    <glyph glyph-name="dotlessi" unicode="&#x131;" horiz-adv-x="296" 
d="M71 0q-9 0 -14.5 5t-5.5 12q0 13 23.5 25.5t23.5 26.5v319q0 12 -9 20t-19 11t-19 9.5t-9 16.5t16 20l110 55q14 9 26.5 4t12.5 -22v-433q0 -13 23 -26t23 -26q0 -7 -6 -12t-15 -5h-161z" />
    <glyph glyph-name="IJ" unicode="&#x132;" horiz-adv-x="854" 
d="M82 0q-9 0 -14.5 5t-5.5 11q0 12 13 20.5t26 19.5t13 30v543q0 15 -8 25t-18 14.5t-18 12t-8 18.5q0 6 5.5 11t14.5 5h182q20 0 20 -16q0 -17 -25.5 -32t-25.5 -38v-543q0 -25 25.5 -40.5t25.5 -29.5q0 -16 -20 -16h-182zM381 105q0 32 19 52t51 20q60 0 70 -77
q7 -66 56 -66q60 0 60 100v495q0 15 -8 25t-18 14.5t-18 12t-8 18.5q0 6 5.5 11t14.5 5h182q20 0 20 -16q0 -10 -8 -17.5t-17.5 -12t-17.5 -15t-8 -25.5v-446q0 -94 -52.5 -146t-149.5 -52q-81 0 -127 34.5t-46 85.5z" />
    <glyph glyph-name="ij" unicode="&#x133;" horiz-adv-x="607" 
d="M71 0q-9 0 -14.5 5t-5.5 12q0 13 23.5 26t23.5 26v319q0 12 -9 19.5t-19 10.5t-19 9.5t-9 16.5q0 12 16 20l112 56q16 8 26.5 3t10.5 -21v-433q0 -13 23 -26t23 -26q0 -7 -6.5 -12t-15.5 -5h-160zM77 640q0 28 20.5 48t49.5 20t49.5 -20t20.5 -48t-20.5 -47.5
t-49.5 -19.5t-49.5 19.5t-20.5 47.5zM227 -124q0 25 16.5 42.5t44.5 17.5q25 0 41.5 -16t22.5 -34.5t15.5 -34.5t22.5 -16q28 0 28 78v475q0 12 -8.5 19.5t-19 10.5t-19 9.5t-8.5 16.5q0 13 16 20l111 56q16 8 26.5 2.5t10.5 -20.5v-503q0 -99 -48 -156t-128 -57
q-56 0 -90 26t-34 64zM387 640q0 28 20.5 48t49.5 20t49.5 -20t20.5 -48t-20.5 -47.5t-49.5 -19.5t-49.5 19.5t-20.5 47.5z" />
    <glyph glyph-name="Jcircumflex" unicode="&#x134;" horiz-adv-x="492" 
d="M191 -15q-81 0 -127 34.5t-46 85.5q0 32 19 52t51 20q60 0 70 -77q7 -66 56 -66q60 0 60 100v495q0 15 -8 25t-18 14.5t-18 12t-8 18.5q0 6 5.5 11t14.5 5h182q20 0 20 -16q0 -12 -13 -20.5t-25.5 -19.5t-12.5 -30v-446q0 -94 -52.5 -146t-149.5 -52zM198 779l113 91
q23 20 47 0l115 -91q14 -12 7.5 -23.5t-22.5 -4.5l-124 44l-121 -44q-16 -7 -22.5 4.5t7.5 23.5z" />
    <glyph glyph-name="jcircumflex" unicode="&#x135;" horiz-adv-x="282" 
d="M26 -214q-56 0 -90 26t-34 64q0 25 16.5 42.5t44.5 17.5q25 0 41.5 -16t22.5 -34.5t15.5 -34.5t22.5 -16q28 0 28 78v475q0 12 -8.5 19.5t-19 10.5t-19 9.5t-8.5 16.5q0 13 16 20l111 56q17 8 27 2.5t10 -20.5v-503q0 -99 -48 -156t-128 -57zM-2 582q0 10 9 20l83 93
q26 32 48 32q20 0 48 -32l83 -93q9 -10 9 -20q0 -11 -10 -14.5t-23 3.5l-107 64l-106 -64q-13 -7 -23.5 -3.5t-10.5 14.5z" />
    <glyph glyph-name="uni0136" unicode="&#x136;" horiz-adv-x="688" 
d="M475 0q-24 0 -24 18q0 11 12 23t12 18q0 8 -9 17l-233 278v-268q0 -23 25.5 -38.5t25.5 -31.5t-20 -16h-182q-9 0 -14.5 5t-5.5 11q0 14 26 30t26 40v543q0 23 -26 38.5t-26 31.5q0 6 5.5 11t14.5 5h182q20 0 20 -16q0 -12 -13 -20.5t-25.5 -19.5t-12.5 -30v-245l233 220
q12 11 12 26q0 11 -6.5 34.5t-6.5 30.5q0 20 25 20h144q24 0 24 -18q0 -12 -18.5 -25.5t-55 -36.5t-63.5 -49l-185 -175l262 -311q18 -20 40 -37.5t32.5 -26.5t10.5 -19q0 -17 -20 -17h-186zM273 -114q0 28 19 46t47 18q30 0 51.5 -22t21.5 -62q0 -52 -35 -89.5t-88 -41.5
q-16 -2 -19.5 10t11.5 17q29 9 45.5 22t16.5 25q0 9 -11 16t-24 11.5t-24 17t-11 32.5z" />
    <glyph glyph-name="uni0137" unicode="&#x137;" horiz-adv-x="551" 
d="M64 0q-20 0 -20 17q0 13 23 25.5t23 26.5v524q0 12 -8.5 19.5t-19 11t-19 10t-8.5 15.5q0 12 16 20l113 56q14 7 25 3t11 -20v-410l131 108q19 16 17 33l-5 52q-1 20 16 20h143q20 0 20 -17q0 -14 -16 -23l-100 -62l-111 -94l175 -225q13 -17 32.5 -31t31 -22.5
t11.5 -18.5q0 -18 -21 -18h-166q-22 0 -22 19q0 9 10.5 20t10.5 19q0 6 -9 19l-148 193v-201q0 -14 22 -26.5t22 -25.5q0 -17 -20 -17h-160zM211 -114q0 28 19 46t47 18q30 0 51.5 -22t21.5 -62q0 -52 -35 -89.5t-88 -41.5q-16 -2 -19.5 10t11.5 17q29 9 45.5 22t16.5 25
q0 9 -11 16t-24 11.5t-24 17t-11 32.5z" />
    <glyph glyph-name="kgreenlandic" unicode="&#x138;" horiz-adv-x="558" 
d="M71 0q-20 0 -20 17q0 13 23 26t23 26v319q0 12 -8.5 19.5t-19 11t-19 10t-8.5 15.5q0 12 16 20l112 57q14 8 25.5 3t11.5 -21v-213l121 116q18 17 17 33l-4 52q-1 20 16 20h143q20 0 20 -17q0 -12 -15 -22l-99 -61l-106 -101l178 -220q13 -16 32.5 -30t30.5 -23t11 -19
q0 -18 -20 -18h-166q-23 0 -23 19q0 9 11 19.5t11 18.5q0 7 -10 20l-148 186v-194q0 -14 22.5 -26.5t22.5 -25.5q0 -17 -21 -17h-160z" />
    <glyph glyph-name="Lacute" unicode="&#x139;" horiz-adv-x="649" 
d="M82 0q-20 0 -20 16q0 12 13 20.5t26 19.5t13 30v543q0 22 -26 38.5t-26 31.5q0 16 20 16h187q20 0 20 -16q0 -15 -26 -31.5t-26 -38.5v-540q0 -21 9 -29.5t30 -8.5h156q32 0 50.5 9.5t32.5 34.5l58 103q11 18 26.5 14.5t15.5 -24.5v-138q0 -50 -52 -50h-481zM84 790
l122 63q24 14 48 14q22 0 35 -11.5t13 -29.5q0 -20 -16 -35t-47 -19l-141 -23q-24 -4 -30.5 12t16.5 29z" />
    <glyph glyph-name="lacute" unicode="&#x13a;" horiz-adv-x="289" 
d="M64 0q-20 0 -20 17q0 13 23 25.5t23 26.5v521q0 20 -27.5 33t-27.5 26t16 20l110 56q14 8 26 3.5t12 -20.5v-639q0 -13 22.5 -25.5t22.5 -26.5q0 -17 -20 -17h-160zM40 790l122 63q24 14 48 14q22 0 35 -11.5t13 -29.5q0 -20 -16 -35t-47 -19l-141 -23q-24 -4 -30.5 12
t16.5 29z" />
    <glyph glyph-name="uni013B" unicode="&#x13b;" horiz-adv-x="649" 
d="M82 0q-20 0 -20 16q0 12 13 20.5t26 19.5t13 30v543q0 22 -26 38.5t-26 31.5q0 16 20 16h187q20 0 20 -16q0 -15 -26 -31.5t-26 -38.5v-540q0 -21 9 -29.5t30 -8.5h156q32 0 50.5 9.5t32.5 34.5l58 103q11 18 26.5 14.5t15.5 -24.5v-138q0 -50 -52 -50h-481zM240 -114
q0 28 19 46t47 18q30 0 51.5 -22t21.5 -62q0 -52 -35 -89.5t-88 -41.5q-16 -2 -19.5 10t11.5 17q29 9 45.5 22t16.5 25q0 9 -11 16t-24 11.5t-24 17t-11 32.5z" />
    <glyph glyph-name="uni013C" unicode="&#x13c;" horiz-adv-x="289" 
d="M64 0q-20 0 -20 17q0 13 23 25.5t23 26.5v521q0 20 -27.5 33t-27.5 26t16 20l110 56q14 8 26 3.5t12 -20.5v-639q0 -13 22.5 -25.5t22.5 -26.5q0 -17 -20 -17h-160zM67 -114q0 28 19 46t47 18q30 0 51.5 -22t21.5 -62q0 -52 -35 -89.5t-88 -41.5q-16 -2 -19.5 10t11.5 17
q29 9 45.5 22t16.5 25q0 9 -11 16t-24 11.5t-24 17t-11 32.5z" />
    <glyph glyph-name="Lcaron" unicode="&#x13d;" horiz-adv-x="650" 
d="M82 0q-20 0 -20 16q0 12 13 20.5t26 19.5t13 30v543q0 22 -26 38.5t-26 31.5q0 16 20 16h187q20 0 20 -16q0 -15 -26 -31.5t-26 -38.5v-540q0 -21 9 -29.5t30 -8.5h156q32 0 50.5 9.5t32.5 34.5l58 103q11 18 26.5 14.5t15.5 -24.5v-138q0 -50 -52 -50h-481zM363 652
q0 28 19 46t47 18q30 0 51.5 -22t21.5 -62q0 -52 -35 -89.5t-88 -41.5q-16 -2 -19.5 10t11.5 17q29 9 45.5 22t16.5 25q0 9 -11 16t-24 11.5t-24 17t-11 32.5z" />
    <glyph glyph-name="lcaron" unicode="&#x13e;" horiz-adv-x="302" 
d="M64 0q-20 0 -20 17q0 13 23 25.5t23 26.5v521q0 20 -27.5 33t-27.5 26t16 20l110 56q14 8 26 3.5t12 -20.5v-639q0 -13 22.5 -25.5t22.5 -26.5q0 -17 -20 -17h-160zM254 647q0 28 19 46t47 18q30 0 51.5 -22t21.5 -62q0 -52 -35 -89.5t-88 -41.5q-16 -2 -19.5 10t11.5 17
q29 9 45.5 22t16.5 25q0 9 -11 16t-24 11.5t-24 17t-11 32.5z" />
    <glyph glyph-name="Ldot" unicode="&#x13f;" horiz-adv-x="649" 
d="M82 0q-20 0 -20 16q0 12 13 20.5t26 19.5t13 30v543q0 22 -26 38.5t-26 31.5q0 16 20 16h187q20 0 20 -16q0 -15 -26 -31.5t-26 -38.5v-540q0 -21 9 -29.5t30 -8.5h156q32 0 50.5 9.5t32.5 34.5l58 103q11 18 26.5 14.5t15.5 -24.5v-138q0 -50 -52 -50h-481zM326 360
q0 32 22 54.5t54 22.5t54.5 -22.5t22.5 -54.5t-22.5 -54t-54.5 -22t-54 22t-22 54z" />
    <glyph glyph-name="ldot" unicode="&#x140;" horiz-adv-x="326" 
d="M64 0q-20 0 -20 17q0 13 23 25.5t23 26.5v521q0 20 -27.5 33t-27.5 26t16 20l110 56q14 8 26 3.5t12 -20.5v-639q0 -13 22.5 -25.5t22.5 -26.5q0 -17 -20 -17h-160zM234 360q0 28 20.5 48t49.5 20t49.5 -20t20.5 -48t-20.5 -47.5t-49.5 -19.5t-49.5 19.5t-20.5 47.5z" />
    <glyph glyph-name="Lslash" unicode="&#x141;" horiz-adv-x="680" 
d="M60 302l87 47v280q0 22 -26 38.5t-26 31.5q0 16 20 16h187q20 0 20 -16q0 -15 -26 -31.5t-26 -38.5v-213l112 78q19 11 33 5t13.5 -23.5t-19.5 -28.5l-139 -83v-275q0 -21 9 -29.5t30 -8.5h156q32 0 50.5 9.5t32.5 34.5l58 103q10 18 26 14.5t16 -24.5v-138
q0 -50 -52 -50h-481q-20 0 -20 16q0 12 13 20.5t26 19.5t13 30v210l-61 -41q-18 -10 -32.5 -4t-14 23t20.5 28z" />
    <glyph glyph-name="lslash" unicode="&#x142;" horiz-adv-x="360" 
d="M84 277q-10 -8 -22 -6.5t-19 11.5q-8 10 -4 22.5t19 20.5l72 37v228q0 20 -27.5 33t-27.5 26t16 20l110 56q14 8 26 3.5t12 -20.5v-289l64 49q28 22 43 -4q7 -11 3.5 -22.5t-17.5 -19.5l-93 -52v-301q0 -13 22.5 -25.5t22.5 -26.5q0 -17 -20 -17h-160q-20 0 -20 17
q0 13 23 25.5t23 26.5v242z" />
    <glyph glyph-name="Nacute" unicode="&#x143;" horiz-adv-x="785" 
d="M93 0q-19 0 -19 16q0 13 20.5 34.5t20.5 45.5v504q0 23 -33 52.5t-33 45.5q0 17 24 17h113q34 0 54 -25l382 -477v406q0 26 -26 45.5t-26 34.5q0 16 20 16h117q18 0 18 -14q0 -12 -20.5 -35.5t-20.5 -46.5v-598q0 -27 -22.5 -32t-39.5 17l-445 558v-468q0 -21 13.5 -34
t26.5 -23t13 -23q0 -16 -19 -16h-118zM329 790l122 63q24 14 48 14q22 0 35 -11.5t13 -29.5q0 -20 -16 -35t-47 -19l-141 -23q-24 -4 -30.5 12t16.5 29z" />
    <glyph glyph-name="nacute" unicode="&#x144;" horiz-adv-x="617" 
d="M396 0q-20 0 -20 17q0 13 23 25t23 24v275q0 58 -20 82t-68 24q-59 0 -127 -31v-350q0 -10 23 -23t23 -26q0 -17 -21 -17h-161q-20 0 -20 17q0 13 23 25.5t23 23.5v321q0 12 -8.5 20.5t-19 11.5t-19 9t-8.5 15q0 12 16 20l112 57q14 8 25.5 3t11.5 -21v-44q106 67 203 67
q121 0 121 -131v-328q0 -11 22.5 -23.5t22.5 -25.5q0 -17 -20 -17h-160zM247 607l66 74q40 46 70 46q23 0 37.5 -15t14.5 -37q0 -38 -51 -60l-108 -49q-21 -8 -32.5 7t3.5 34z" />
    <glyph glyph-name="uni0145" unicode="&#x145;" horiz-adv-x="785" 
d="M93 0q-19 0 -19 16q0 13 20.5 34.5t20.5 45.5v504q0 23 -33 52.5t-33 45.5q0 17 24 17h113q34 0 54 -25l382 -477v406q0 26 -26 45.5t-26 34.5q0 16 20 16h117q18 0 18 -14q0 -12 -20.5 -35.5t-20.5 -46.5v-598q0 -27 -22.5 -32t-39.5 17l-445 558v-468q0 -21 13.5 -34
t26.5 -23t13 -23q0 -16 -19 -16h-118zM335 -114q0 28 19 46t47 18q30 0 51.5 -22t21.5 -62q0 -52 -35 -89.5t-88 -41.5q-16 -2 -19.5 10t11.5 17q29 9 45.5 22t16.5 25q0 9 -11 16t-24 11.5t-24 17t-11 32.5z" />
    <glyph glyph-name="uni0146" unicode="&#x146;" horiz-adv-x="617" 
d="M396 0q-20 0 -20 17q0 13 23 25t23 24v275q0 58 -20 82t-68 24q-59 0 -127 -31v-350q0 -10 23 -23t23 -26q0 -17 -21 -17h-161q-20 0 -20 17q0 13 23 25.5t23 23.5v321q0 12 -8.5 20.5t-19 11.5t-19 9t-8.5 15q0 12 16 20l112 57q14 8 25.5 3t11.5 -21v-44q106 67 203 67
q121 0 121 -131v-328q0 -11 22.5 -23.5t22.5 -25.5q0 -17 -20 -17h-160zM243 -114q0 28 19 46t47 18q30 0 51.5 -22t21.5 -62q0 -52 -35 -89.5t-88 -41.5q-16 -2 -19.5 10t11.5 17q29 9 45.5 22t16.5 25q0 9 -11 16t-24 11.5t-24 17t-11 32.5z" />
    <glyph glyph-name="Ncaron" unicode="&#x147;" horiz-adv-x="785" 
d="M93 0q-19 0 -19 16q0 13 20.5 34.5t20.5 45.5v504q0 23 -33 52.5t-33 45.5q0 17 24 17h113q34 0 54 -25l382 -477v406q0 26 -26 45.5t-26 34.5q0 16 20 16h117q18 0 18 -14q0 -12 -20.5 -35.5t-20.5 -46.5v-598q0 -27 -22.5 -32t-39.5 17l-445 558v-468q0 -21 13.5 -34
t26.5 -23t13 -23q0 -16 -19 -16h-118zM288 850q-12 11 -6 22t22 5l121 -45l123 45q15 5 21.5 -4t-5.5 -22l-115 -93q-24 -20 -47 0z" />
    <glyph glyph-name="ncaron" unicode="&#x148;" horiz-adv-x="617" 
d="M396 0q-20 0 -20 17q0 13 23 25t23 24v275q0 58 -20 82t-68 24q-59 0 -127 -31v-350q0 -10 23 -23t23 -26q0 -17 -21 -17h-161q-20 0 -20 17q0 13 23 25.5t23 23.5v321q0 12 -8.5 20.5t-19 11.5t-19 9t-8.5 15q0 12 16 20l112 57q14 8 25.5 3t11.5 -21v-44q106 67 203 67
q121 0 121 -131v-328q0 -11 22.5 -23.5t22.5 -25.5q0 -17 -20 -17h-160zM190 711q0 11 10 14.5t24 -3.5l107 -63l106 63q13 7 23 3.5t10 -14.5q0 -9 -9 -20l-82 -92q-29 -32 -48 -32q-21 0 -49 32l-83 92q-9 11 -9 20z" />
    <glyph glyph-name="napostrophe" unicode="&#x149;" horiz-adv-x="617" 
d="M396 0q-20 0 -20 17q0 13 23 25t23 24v275q0 58 -20 82t-68 24q-59 0 -127 -31v-350q0 -10 23 -23t23 -26q0 -17 -21 -17h-161q-20 0 -20 17q0 13 23 25.5t23 23.5v321q0 12 -8.5 20.5t-19 11.5t-19 9t-8.5 15q0 12 16 20l112 57q14 8 25.5 3t11.5 -21v-44q106 67 203 67
q121 0 121 -131v-328q0 -11 22.5 -23.5t22.5 -25.5q0 -17 -20 -17h-160zM75 705q0 27 20.5 46.5t51.5 19.5q30 0 53 -22.5t23 -58.5q0 -57 -36.5 -96.5t-92.5 -44.5q-17 -1 -20 11t12 17q54 17 62 43q6 16 -16 21q-57 13 -57 64z" />
    <glyph glyph-name="Eng" unicode="&#x14a;" horiz-adv-x="785" 
d="M489 -214q-82 0 -128 34.5t-46 85.5q0 32 18.5 52.5t50.5 20.5q60 0 70 -79q7 -65 54 -65q57 0 57 101v141l-388 480v-461q0 -21 13.5 -34t26.5 -23t13 -23q0 -16 -19 -16h-118q-19 0 -19 16q0 13 20.5 34.5t20.5 45.5v504q0 23 -33 52.5t-33 45.5q0 17 24 17h113
q34 0 54 -25l382 -476v405q0 26 -26 45.5t-26 34.5q0 16 20 16h117q18 0 18 -14q0 -12 -20.5 -35.5t-20.5 -46.5v-634q0 -95 -49.5 -147t-145.5 -52z" />
    <glyph glyph-name="eng" unicode="&#x14b;" horiz-adv-x="606" 
d="M354 -214q-55 0 -89.5 26t-34.5 64q0 25 17 42.5t45 17.5q41 0 60 -49q2 -3 11 -21.5t15 -24.5t16 -6q17 0 22.5 19.5t5.5 58.5v406q0 58 -20 82t-68 24q-59 0 -127 -31v-328q0 -10 23 -23t23 -26q0 -17 -21 -17h-161q-20 0 -20 17q0 13 23 25.5t23 23.5v299
q0 13 -8.5 21t-19 11t-19 9t-8.5 15q0 10 16 20l112 57q14 8 25.5 3.5t11.5 -21.5v-44q106 67 206 67q118 0 118 -131v-373q0 -99 -48.5 -156t-128.5 -57z" />
    <glyph glyph-name="Omacron" unicode="&#x14c;" horiz-adv-x="811" 
d="M405 -15q-158 0 -255.5 109t-97.5 263t97.5 263.5t255.5 109.5q159 0 256.5 -109.5t97.5 -263.5t-97.5 -263t-256.5 -109zM198 336q0 -142 54 -220.5t153 -78.5q100 0 154.5 78.5t54.5 220.5v45q0 141 -54.5 219t-154.5 78q-99 0 -153 -78t-54 -219v-45zM270 781
q-20 0 -28 14.5t0 29t28 14.5h280q19 0 26.5 -14.5t0 -29t-26.5 -14.5h-280z" />
    <glyph glyph-name="omacron" unicode="&#x14d;" horiz-adv-x="597" 
d="M298 -15q-110 0 -182 75t-72 195q0 121 72 195.5t182 74.5t182 -74.5t72 -195.5q0 -120 -72 -195t-182 -75zM159 616q-20 0 -28 14.5t0 29t28 14.5h280q19 0 26.5 -14.5t0 -29t-26.5 -14.5h-280zM170 224q0 -91 33.5 -140.5t94.5 -49.5t94.5 49.5t33.5 141.5v61
q0 191 -128 191t-128 -191v-62z" />
    <glyph glyph-name="Obreve" unicode="&#x14e;" horiz-adv-x="811" 
d="M405 -15q-158 0 -255.5 109t-97.5 263t97.5 263.5t255.5 109.5q159 0 256.5 -109.5t97.5 -263.5t-97.5 -263t-256.5 -109zM198 336q0 -142 54 -220.5t153 -78.5q100 0 154.5 78.5t54.5 220.5v45q0 141 -54.5 219t-154.5 78q-99 0 -153 -78t-54 -219v-45zM268 854
q-4 17 5.5 22t19.5 -5q41 -39 114 -39q70 0 112 39q10 10 19.5 5t5.5 -22q-13 -43 -48.5 -66.5t-88.5 -23.5q-55 0 -90.5 23.5t-48.5 66.5z" />
    <glyph glyph-name="obreve" unicode="&#x14f;" horiz-adv-x="597" 
d="M298 -15q-110 0 -182 75t-72 195q0 121 72 195.5t182 74.5t182 -74.5t72 -195.5q0 -120 -72 -195t-182 -75zM159 702q-2 19 11.5 24t22.5 -10q20 -35 42.5 -50t59.5 -15t58.5 15t43.5 50q9 15 22 10t11 -24q-6 -60 -45 -92.5t-90 -32.5t-89.5 32.5t-46.5 92.5zM170 224
q0 -91 33.5 -140.5t94.5 -49.5t94.5 49.5t33.5 141.5v61q0 191 -128 191t-128 -191v-62z" />
    <glyph glyph-name="Ohungarumlaut" unicode="&#x150;" horiz-adv-x="811" 
d="M405 -15q-158 0 -255.5 109t-97.5 263t97.5 263.5t255.5 109.5q159 0 256.5 -109.5t97.5 -263.5t-97.5 -263t-256.5 -109zM198 336q0 -142 54 -220.5t153 -78.5q100 0 154.5 78.5t54.5 220.5v45q0 141 -54.5 219t-154.5 78q-99 0 -153 -78t-54 -219v-45zM290 779l74 71
q19 17 31 22.5t32 5.5h76q9 0 13.5 -5.5t1 -13.5t-16.5 -14l-191 -90q-17 -9 -25.5 1t5.5 23zM459 779l74 71q18 17 30 22.5t33 5.5h76q9 0 13.5 -5.5t1 -13.5t-16.5 -14l-192 -90q-16 -9 -24 1t5 23z" />
    <glyph glyph-name="ohungarumlaut" unicode="&#x151;" horiz-adv-x="597" 
d="M298 -15q-110 0 -182 75t-72 195q0 121 72 195.5t182 74.5t182 -74.5t72 -195.5q0 -120 -72 -195t-182 -75zM170 224q0 -91 33.5 -140.5t94.5 -49.5t94.5 49.5t33.5 141.5v61q0 191 -128 191t-128 -191v-62zM182 588l42 84q22 43 61 43h59q37 0 9 -28l-135 -123
q-17 -16 -32 -7t-4 31zM330 589l54 87q23 39 53 39h77q19 0 23 -8.5t-9 -19.5l-162 -124q-18 -14 -33 -4.5t-3 30.5z" />
    <glyph glyph-name="OE" unicode="&#x152;" horiz-adv-x="1096" 
d="M411 -15q-108 0 -191 52t-125.5 136t-42.5 184q0 154 99.5 263.5t258.5 109.5q57 0 102 -15h469q52 0 52 -48v-131q0 -18 -14.5 -21.5t-23.5 11.5l-60 95q-16 24 -35 33.5t-48 9.5h-166q-28 0 -28 -29v-228h120q38 0 58 33l38 61q10 18 23 14t13 -24v-219q0 -20 -13 -24
t-23 15l-38 61q-19 32 -58 32h-120v-267q0 -21 9 -29.5t30 -8.5h152q31 0 50.5 9.5t35.5 34.5l59 95q9 17 23.5 14t14.5 -22v-132q0 -50 -52 -50h-466q-45 -15 -103 -15zM193 339q0 -141 62 -226t160 -85q71 0 129 52v555q-58 52 -130 52q-98 0 -159.5 -85t-61.5 -226v-37z
" />
    <glyph glyph-name="oe" unicode="&#x153;" horiz-adv-x="918" 
d="M44 255q0 121 72 195.5t182 74.5q116 0 189 -81q65 81 178 81q91 0 147 -52.5t56 -123.5q0 -31 -12 -44t-36 -13h-291q2 -103 49.5 -160t127.5 -57q43 0 76 16.5t52 32.5t28 16q11 0 11 -16q0 -12 -5 -24q-19 -50 -72 -82.5t-124 -32.5q-116 0 -184 84q-72 -84 -190 -84
q-110 0 -182 75t-72 195zM170 224q0 -91 33.5 -140.5t94.5 -49.5t94.5 49.5t33.5 141.5v61q0 191 -128 191t-128 -191v-62zM530 340h199q30 0 30 27q0 47 -25 79t-77 32q-54 0 -88.5 -36t-38.5 -102z" />
    <glyph glyph-name="Racute" unicode="&#x154;" horiz-adv-x="687" 
d="M82 0q-20 0 -20 16q0 12 13 20.5t26 19.5t13 30v543q0 23 -26 38.5t-26 31.5q0 6 5.5 11t14.5 5h244q146 0 219.5 -51t73.5 -143q0 -79 -62.5 -128.5t-200.5 -57.5q34 -11 58 -38l171 -195q15 -17 32 -31t27 -20t16.5 -14t6.5 -19q0 -18 -26 -18h-88q-38 0 -68 38
l-252 295v-247q0 -23 25.5 -38.5t25.5 -31.5t-20 -16h-182zM233 381q27 -4 62 -4q194 0 194 139q0 150 -192 150h-31q-33 0 -33 -30v-255zM257 790l122 63q24 14 48 14q22 0 35 -11.5t13 -29.5q0 -20 -16 -35t-47 -19l-141 -23q-24 -4 -30.5 12t16.5 29z" />
    <glyph glyph-name="racute" unicode="&#x155;" horiz-adv-x="436" 
d="M71 0q-20 0 -20 17q0 13 23 25.5t23 23.5v321q0 13 -8.5 21.5t-18.5 11.5t-18.5 9t-8.5 15q0 14 15 21l110 55q14 8 26.5 3.5t12.5 -20.5v-64q23 40 59.5 63t76.5 23q37 0 58.5 -18.5t21.5 -48.5q0 -27 -17 -42.5t-43 -15.5q-22 0 -49 16.5t-47 16.5q-28 0 -44 -19.5
t-16 -54.5v-293q0 -9 11 -16t22.5 -14.5t11.5 -18.5q0 -17 -21 -17h-160zM132 607l66 74q40 46 70 46q23 0 37.5 -15t14.5 -37q0 -38 -51 -60l-108 -49q-21 -8 -32.5 7t3.5 34z" />
    <glyph glyph-name="uni0156" unicode="&#x156;" horiz-adv-x="687" 
d="M82 0q-20 0 -20 16q0 12 13 20.5t26 19.5t13 30v543q0 23 -26 38.5t-26 31.5q0 6 5.5 11t14.5 5h244q146 0 219.5 -51t73.5 -143q0 -79 -62.5 -128.5t-200.5 -57.5q34 -11 58 -38l171 -195q15 -17 32 -31t27 -20t16.5 -14t6.5 -19q0 -18 -26 -18h-88q-38 0 -68 38
l-252 295v-247q0 -23 25.5 -38.5t25.5 -31.5t-20 -16h-182zM233 381q27 -4 62 -4q194 0 194 139q0 150 -192 150h-31q-33 0 -33 -30v-255zM285 -114q0 28 19 46t47 18q30 0 51.5 -22t21.5 -62q0 -52 -35 -89.5t-88 -41.5q-16 -2 -19.5 10t11.5 17q29 9 45.5 22t16.5 25
q0 9 -11 16t-24 11.5t-24 17t-11 32.5z" />
    <glyph glyph-name="uni0157" unicode="&#x157;" horiz-adv-x="436" 
d="M71 0q-20 0 -20 17q0 13 23 25.5t23 23.5v321q0 13 -8.5 21.5t-18.5 11.5t-18.5 9t-8.5 15q0 14 15 21l110 55q14 8 26.5 3.5t12.5 -20.5v-64q23 40 59.5 63t76.5 23q37 0 58.5 -18.5t21.5 -48.5q0 -27 -17 -42.5t-43 -15.5q-22 0 -49 16.5t-47 16.5q-28 0 -44 -19.5
t-16 -54.5v-293q0 -9 11 -16t22.5 -14.5t11.5 -18.5q0 -17 -21 -17h-160zM84 -114q0 28 19 46t47 18q30 0 51.5 -22t21.5 -62q0 -52 -35 -89.5t-88 -41.5q-16 -2 -19.5 10t11.5 17q29 9 45.5 22t16.5 25q0 9 -11 16t-24 11.5t-24 17t-11 32.5z" />
    <glyph glyph-name="Rcaron" unicode="&#x158;" horiz-adv-x="687" 
d="M82 0q-20 0 -20 16q0 12 13 20.5t26 19.5t13 30v543q0 23 -26 38.5t-26 31.5q0 6 5.5 11t14.5 5h244q146 0 219.5 -51t73.5 -143q0 -79 -62.5 -128.5t-200.5 -57.5q34 -11 58 -38l171 -195q15 -17 32 -31t27 -20t16.5 -14t6.5 -19q0 -18 -26 -18h-88q-38 0 -68 38
l-252 295v-247q0 -23 25.5 -38.5t25.5 -31.5t-20 -16h-182zM217 850q-12 11 -6 22t22 5l121 -45l123 45q15 5 21.5 -4t-5.5 -22l-115 -93q-24 -20 -47 0zM233 381q27 -4 62 -4q194 0 194 139q0 150 -192 150h-31q-33 0 -33 -30v-255z" />
    <glyph glyph-name="rcaron" unicode="&#x159;" horiz-adv-x="436" 
d="M71 0q-20 0 -20 17q0 13 23 25.5t23 23.5v321q0 13 -8.5 21.5t-18.5 11.5t-18.5 9t-8.5 15q0 14 15 21l110 55q14 8 26.5 3.5t12.5 -20.5v-64q23 40 59.5 63t76.5 23q37 0 58.5 -18.5t21.5 -48.5q0 -27 -17 -42.5t-43 -15.5q-22 0 -49 16.5t-47 16.5q-28 0 -44 -19.5
t-16 -54.5v-293q0 -9 11 -16t22.5 -14.5t11.5 -18.5q0 -17 -21 -17h-160zM75 711q0 11 10.5 14.5t23.5 -3.5l107 -63l106 63q13 7 23 3.5t10 -14.5q0 -9 -9 -20l-82 -92q-29 -32 -48 -32q-21 0 -49 32l-83 92q-9 11 -9 20z" />
    <glyph glyph-name="Sacute" unicode="&#x15a;" horiz-adv-x="580" 
d="M295 -15q-95 0 -165.5 36t-70.5 97q0 33 20.5 52t52.5 19q61 0 81 -72q24 -81 106 -81q52 0 81 29t29 78q0 51 -37 89t-131 89q-94 52 -125 78q-69 59 -69 144q0 82 58.5 134.5t167.5 52.5q97 0 161.5 -40t64.5 -97q0 -29 -18 -44t-46 -15q-53 0 -74 65q-26 80 -107 80
q-51 0 -78.5 -28.5t-27.5 -73.5q0 -46 35 -80t129 -85q39 -21 59 -32t52 -35t48 -45t29 -53.5t13 -69.5q0 -84 -58.5 -138t-179.5 -54zM185 790l122 63q24 14 48 14q22 0 35 -11.5t13 -29.5q0 -20 -16 -35t-47 -19l-141 -23q-24 -4 -30.5 12t16.5 29z" />
    <glyph glyph-name="sacute" unicode="&#x15b;" horiz-adv-x="458" 
d="M233 -15q-73 0 -128.5 30.5t-55.5 80.5q0 23 13 37t35 14t37 -18t23 -39.5t30 -39.5t56 -18q36 0 57 19t21 52t-26.5 59.5t-94.5 53.5q-78 31 -110.5 70.5t-32.5 94.5q0 69 47 106.5t123 37.5q68 0 120 -28t52 -75q0 -21 -11.5 -33.5t-30.5 -12.5q-20 0 -36.5 16t-27 35
t-31.5 35t-49 16q-33 0 -52 -17.5t-19 -47.5q0 -29 23.5 -52t88.5 -49q88 -34 121.5 -77.5t33.5 -95.5q0 -74 -48 -114t-128 -40zM137 607l66 74q40 46 70 46q23 0 37.5 -15t14.5 -37q0 -38 -51 -60l-108 -49q-21 -8 -32.5 7t3.5 34z" />
    <glyph glyph-name="Scircumflex" unicode="&#x15c;" horiz-adv-x="580" 
d="M295 -15q-95 0 -165.5 36t-70.5 97q0 33 20.5 52t52.5 19q61 0 81 -72q24 -81 106 -81q52 0 81 29t29 78q0 51 -37 89t-131 89q-94 52 -125 78q-69 59 -69 144q0 82 58.5 134.5t167.5 52.5q97 0 161.5 -40t64.5 -97q0 -29 -18 -44t-46 -15q-53 0 -74 65q-26 80 -107 80
q-51 0 -78.5 -28.5t-27.5 -73.5q0 -46 35 -80t129 -85q39 -21 59 -32t52 -35t48 -45t29 -53.5t13 -69.5q0 -84 -58.5 -138t-179.5 -54zM146 779l113 91q23 20 47 0l115 -91q14 -12 7.5 -23.5t-22.5 -4.5l-124 44l-121 -44q-16 -7 -22.5 4.5t7.5 23.5z" />
    <glyph glyph-name="scircumflex" unicode="&#x15d;" horiz-adv-x="458" 
d="M233 -15q-73 0 -128.5 30.5t-55.5 80.5q0 23 13 37t35 14t37 -18t23 -39.5t30 -39.5t56 -18q36 0 57 19t21 52t-26.5 59.5t-94.5 53.5q-78 31 -110.5 70.5t-32.5 94.5q0 69 47 106.5t123 37.5q68 0 120 -28t52 -75q0 -21 -11.5 -33.5t-30.5 -12.5q-20 0 -36.5 16t-27 35
t-31.5 35t-49 16q-33 0 -52 -17.5t-19 -47.5q0 -29 23.5 -52t88.5 -49q88 -34 121.5 -77.5t33.5 -95.5q0 -74 -48 -114t-128 -40zM80 582q0 10 9 20l83 93q26 32 48 32q20 0 48 -32l83 -93q9 -10 9 -20q0 -11 -10 -14.5t-23 3.5l-107 64l-106 -64q-13 -7 -23.5 -3.5
t-10.5 14.5z" />
    <glyph glyph-name="Scedilla" unicode="&#x15e;" horiz-adv-x="580" 
d="M295 -15h-7l-27 -35q60 0 93 -20.5t33 -54.5q0 -38 -39 -63.5t-106 -25.5q-46 0 -72 15.5t-26 38.5q0 18 12 29.5t30 11.5q15 0 45 -14t52 -14q42 0 42 32q0 24 -33 24q-8 0 -25 -2t-25 -2q-35 0 -35 26q0 13 19 36l19 21q-80 9 -133 43t-53 87q0 33 20.5 52t52.5 19
q61 0 81 -72q24 -81 106 -81q52 0 81 29t29 78q0 51 -37 89t-131 89q-94 52 -125 78q-69 59 -69 144q0 82 58.5 134.5t167.5 52.5q97 0 161.5 -40t64.5 -97q0 -29 -18 -44t-46 -15q-53 0 -74 65q-26 80 -107 80q-51 0 -78.5 -28.5t-27.5 -73.5q0 -46 35 -80t129 -85
q39 -21 59 -32t52 -35t48 -45t29 -53.5t13 -69.5q0 -84 -58.5 -138t-179.5 -54z" />
    <glyph glyph-name="scedilla" unicode="&#x15f;" horiz-adv-x="458" 
d="M49 96q0 23 13 37t35 14t37 -18t23 -39.5t30 -39.5t56 -18q36 0 57 19t21 52t-26.5 59.5t-94.5 53.5q-78 31 -110.5 70.5t-32.5 94.5q0 69 47 106.5t123 37.5q68 0 120 -28t52 -75q0 -21 -11.5 -33.5t-30.5 -12.5q-20 0 -36.5 16t-27 35t-31.5 35t-49 16q-33 0 -52 -17.5
t-19 -47.5q0 -29 23.5 -52t88.5 -49q88 -34 121.5 -77.5t33.5 -95.5q0 -69 -43 -109t-115 -44l-28 -36q60 0 93 -20.5t33 -54.5q0 -38 -39 -63.5t-106 -25.5q-46 0 -72 15.5t-26 38.5q0 18 12 29.5t30 11.5q15 0 45 -14t52 -14q42 0 42 32q0 24 -33 24q-8 0 -25 -2t-25 -2
q-35 0 -35 26q0 13 19 36l18 19q-65 6 -111 36t-46 74z" />
    <glyph glyph-name="Scaron" unicode="&#x160;" horiz-adv-x="580" 
d="M295 -15q-95 0 -165.5 36t-70.5 97q0 33 20.5 52t52.5 19q61 0 81 -72q24 -81 106 -81q52 0 81 29t29 78q0 51 -37 89t-131 89q-94 52 -125 78q-69 59 -69 144q0 82 58.5 134.5t167.5 52.5q97 0 161.5 -40t64.5 -97q0 -29 -18 -44t-46 -15q-53 0 -74 65q-26 80 -107 80
q-51 0 -78.5 -28.5t-27.5 -73.5q0 -46 35 -80t129 -85q39 -21 59 -32t52 -35t48 -45t29 -53.5t13 -69.5q0 -84 -58.5 -138t-179.5 -54zM144 850q-12 11 -6 22t22 5l121 -45l123 45q15 5 21.5 -4t-5.5 -22l-115 -93q-24 -20 -47 0z" />
    <glyph glyph-name="scaron" unicode="&#x161;" horiz-adv-x="458" 
d="M233 -15q-73 0 -128.5 30.5t-55.5 80.5q0 23 13 37t35 14t37 -18t23 -39.5t30 -39.5t56 -18q36 0 57 19t21 52t-26.5 59.5t-94.5 53.5q-78 31 -110.5 70.5t-32.5 94.5q0 69 47 106.5t123 37.5q68 0 120 -28t52 -75q0 -21 -11.5 -33.5t-30.5 -12.5q-20 0 -36.5 16t-27 35
t-31.5 35t-49 16q-33 0 -52 -17.5t-19 -47.5q0 -29 23.5 -52t88.5 -49q88 -34 121.5 -77.5t33.5 -95.5q0 -74 -48 -114t-128 -40zM79 711q0 11 10.5 14.5t23.5 -3.5l107 -63l106 63q13 7 23 3.5t10 -14.5q0 -9 -9 -20l-82 -92q-29 -32 -48 -32q-21 0 -49 32l-83 92
q-9 11 -9 20z" />
    <glyph glyph-name="uni0162" unicode="&#x162;" horiz-adv-x="652" 
d="M235 0q-20 0 -20 16q0 10 8 17.5t17.5 12t17.5 15t8 25.5v582q-44 0 -66 -7.5t-48 -31.5l-92 -83q-13 -13 -27 -8.5t-10 22.5l24 117q5 26 13.5 34t34.5 8q37 0 110 -2.5t121 -1.5q45 0 117.5 2t112.5 2q26 0 35 -8t14 -34l23 -117q4 -18 -9.5 -22.5t-26.5 8.5l-92 83
q-27 24 -48.5 31.5t-65.5 7.5v-582q0 -23 25.5 -38.5t25.5 -31.5t-21 -16h-76l-39 -50q60 0 93 -20.5t33 -54.5q0 -38 -39 -63.5t-106 -25.5q-46 0 -72 15.5t-26 38.5q0 18 12 29.5t30 11.5q15 0 45 -14t52 -14q42 0 42 32q0 24 -33 24q-8 0 -25 -2t-25 -2q-35 0 -35 26
q0 13 19 36l31 33h-62z" />
    <glyph glyph-name="uni0163" unicode="&#x163;" horiz-adv-x="393" 
d="M26 508l151 123q13 11 24 6.5t11 -21.5v-105h153q18 0 18 -17v-15q0 -17 -18 -17h-153v-350q0 -34 15 -48t50 -14q25 0 49.5 5.5t27.5 5.5q14 0 14 -12q0 -22 -43.5 -42.5t-96.5 -21.5l-27 -35q60 0 93 -20.5t33 -54.5q0 -38 -39 -63.5t-106 -25.5q-46 0 -72 15.5
t-26 38.5q0 18 12 29.5t30 11.5q15 0 45 -14t52 -14q42 0 42 32q0 24 -33 24q-8 0 -25 -2t-25 -2q-35 0 -35 26q0 13 19 36l20 22q-83 17 -83 122v329q0 28 -29 28h-34q-20 0 -25 13.5t11 26.5z" />
    <glyph glyph-name="Tcaron" unicode="&#x164;" horiz-adv-x="652" 
d="M235 0q-20 0 -20 16q0 10 8 17.5t17.5 12t17.5 15t8 25.5v582q-44 0 -66 -7.5t-48 -31.5l-92 -83q-13 -13 -27 -8.5t-10 22.5l24 117q5 26 13.5 34t34.5 8q37 0 110 -2.5t121 -1.5q45 0 117.5 2t112.5 2q26 0 35 -8t14 -34l23 -117q4 -18 -9.5 -22.5t-26.5 8.5l-92 83
q-27 24 -48.5 31.5t-65.5 7.5v-582q0 -23 25.5 -38.5t25.5 -31.5t-21 -16h-181zM185 850q-12 11 -6 22t22 5l121 -45l123 45q15 5 21.5 -4t-5.5 -22l-115 -93q-24 -20 -47 0z" />
    <glyph glyph-name="tcaron" unicode="&#x165;" horiz-adv-x="393" 
d="M224 -15q-121 0 -121 126v329q0 28 -29 28h-34q-20 0 -25 13.5t11 26.5l151 123q13 11 24 6.5t11 -21.5v-105h153q18 0 18 -17v-15q0 -17 -18 -17h-153v-350q0 -34 15 -48t50 -14q25 0 49.5 5.5t27.5 5.5q14 0 14 -12q0 -22 -45.5 -43t-98.5 -21zM253 725q0 28 19 46
t47 18q30 0 51.5 -22t21.5 -62q0 -52 -35 -89.5t-88 -41.5q-16 -2 -19.5 10t11.5 17q29 9 45.5 22t16.5 25q0 9 -11 16t-24 11.5t-24 17t-11 32.5z" />
    <glyph glyph-name="Tbar" unicode="&#x166;" horiz-adv-x="652" 
d="M133 452q-17 0 -23.5 13t0.5 25.5t24 12.5l132 -3v168q-44 0 -66 -7.5t-48 -31.5l-92 -83q-13 -13 -27 -8.5t-10 22.5l24 117q5 26 13.5 34t34.5 8q37 0 110 -2.5t121 -1.5q45 0 117.5 2t112.5 2q26 0 35 -8t14 -34l23 -117q4 -18 -9.5 -22.5t-26.5 8.5l-92 83
q-27 24 -48.5 31.5t-65.5 7.5v-168l132 3q17 0 24.5 -13t0 -25.5t-25.5 -12.5l-131 3v-369q0 -23 25.5 -38.5t25.5 -31.5t-21 -16h-181q-20 0 -20 16q0 10 8 17.5t17.5 12t17.5 15t8 25.5v369z" />
    <glyph glyph-name="tbar" unicode="&#x167;" horiz-adv-x="401" 
d="M333 321l-115 5v-214q0 -34 15 -48t50 -14q25 0 49.5 5.5t27.5 5.5q14 0 14 -12q0 -22 -45.5 -43t-98.5 -21q-121 0 -121 126v215l-63 -1q-31 0 -31 23v4q0 12 9.5 18t22.5 5l62 -2v67q0 28 -29 28h-34q-20 0 -25 13.5t11 26.5l151 123q13 11 24 6.5t11 -21.5v-105h153
q18 0 18 -17v-15q0 -17 -18 -17h-153v-91l116 1q30 0 30 -23v-6q0 -11 -9 -17t-22 -5z" />
    <glyph glyph-name="Utilde" unicode="&#x168;" horiz-adv-x="751" 
d="M389 -15q-135 0 -213.5 69.5t-78.5 189.5v385q0 23 -25.5 38.5t-25.5 31.5t20 16h186q20 0 20 -16q0 -12 -13 -20.5t-25.5 -19.5t-12.5 -30v-371q0 -100 49.5 -150.5t141.5 -50.5q91 0 136 49.5t45 155.5v350q0 26 -26.5 47.5t-26.5 39.5q0 16 22 16h115q20 0 20 -15
q0 -11 -21 -35.5t-21 -51.5v-355q0 -273 -266 -273zM253 801q42 79 101 79q13 0 32.5 -7.5t50.5 -22.5t52 -23l62 40q11 7 19 0t1 -20q-37 -79 -99 -79q-14 0 -33.5 7t-51.5 22t-52 23l-61 -38q-12 -7 -20 -0.5t-1 19.5z" />
    <glyph glyph-name="utilde" unicode="&#x169;" horiz-adv-x="608" 
d="M234 -15q-67 0 -104.5 38t-37.5 115v243q0 13 -9 21.5t-19.5 11.5t-19.5 9t-9 16q0 13 16 21l114 60q15 8 25.5 3t10.5 -20v-340q0 -58 21 -83t71 -25q60 0 113 36v291q0 13 -9 21.5t-19 12t-19 10t-9 16.5q0 12 17 21l113 58q16 8 25.5 3t9.5 -20v-388q0 -13 8.5 -21
t19.5 -11.5t19.5 -9.5t8.5 -16q0 -13 -16 -20l-113 -50q-16 -7 -26 -2t-10 21v37q-75 -59 -172 -59zM137 625q38 89 104 89q19 0 39 -7.5t51 -22t57 -23.5l63 40q10 7 16.5 2t2.5 -17q-35 -91 -106 -91q-20 0 -38.5 7t-48.5 21.5t-61 25.5l-61 -40q-11 -7 -17.5 -1.5
t-0.5 17.5z" />
    <glyph glyph-name="Umacron" unicode="&#x16a;" horiz-adv-x="751" 
d="M389 -15q-135 0 -213.5 69.5t-78.5 189.5v385q0 23 -25.5 38.5t-25.5 31.5t20 16h186q20 0 20 -16q0 -12 -13 -20.5t-25.5 -19.5t-12.5 -30v-371q0 -100 49.5 -150.5t141.5 -50.5q91 0 136 49.5t45 155.5v350q0 26 -26.5 47.5t-26.5 39.5q0 16 22 16h115q20 0 20 -15
q0 -11 -21 -35.5t-21 -51.5v-355q0 -273 -266 -273zM276 781q-20 0 -28 14.5t0 29t28 14.5h280q19 0 26.5 -14.5t0 -29t-26.5 -14.5h-280z" />
    <glyph glyph-name="umacron" unicode="&#x16b;" horiz-adv-x="608" 
d="M234 -15q-67 0 -104.5 38t-37.5 115v243q0 13 -9 21.5t-19.5 11.5t-19.5 9t-9 16q0 13 16 21l114 60q15 8 25.5 3t10.5 -20v-340q0 -58 21 -83t71 -25q60 0 113 36v291q0 13 -9 21.5t-19 12t-19 10t-9 16.5q0 12 17 21l113 58q16 8 25.5 3t9.5 -20v-388q0 -13 8.5 -21
t19.5 -11.5t19.5 -9.5t8.5 -16q0 -13 -16 -20l-113 -50q-16 -7 -26 -2t-10 21v37q-75 -59 -172 -59zM165 616q-20 0 -28 14.5t0 29t28 14.5h280q19 0 26.5 -14.5t0 -29t-26.5 -14.5h-280z" />
    <glyph glyph-name="Ubreve" unicode="&#x16c;" horiz-adv-x="751" 
d="M389 -15q-135 0 -213.5 69.5t-78.5 189.5v385q0 23 -25.5 38.5t-25.5 31.5t20 16h186q20 0 20 -16q0 -12 -13 -20.5t-25.5 -19.5t-12.5 -30v-371q0 -100 49.5 -150.5t141.5 -50.5q91 0 136 49.5t45 155.5v350q0 26 -26.5 47.5t-26.5 39.5q0 16 22 16h115q20 0 20 -15
q0 -11 -21 -35.5t-21 -51.5v-355q0 -273 -266 -273zM274 854q-4 17 5.5 22t19.5 -5q40 -39 114 -39q70 0 112 39q10 10 19.5 5t5.5 -22q-13 -43 -48.5 -66.5t-88.5 -23.5q-55 0 -90.5 23.5t-48.5 66.5z" />
    <glyph glyph-name="ubreve" unicode="&#x16d;" horiz-adv-x="608" 
d="M234 -15q-67 0 -104.5 38t-37.5 115v243q0 13 -9 21.5t-19.5 11.5t-19.5 9t-9 16q0 13 16 21l114 60q15 8 25.5 3t10.5 -20v-340q0 -58 21 -83t71 -25q60 0 113 36v291q0 13 -9 21.5t-19 12t-19 10t-9 16.5q0 12 17 21l113 58q16 8 25.5 3t9.5 -20v-388q0 -13 8.5 -21
t19.5 -11.5t19.5 -9.5t8.5 -16q0 -13 -16 -20l-113 -50q-16 -7 -26 -2t-10 21v37q-75 -59 -172 -59zM164 702q-2 19 11.5 24t22.5 -10q20 -35 42.5 -50t59.5 -15t58.5 15t43.5 50q9 15 22 10t11 -24q-6 -60 -45 -92.5t-90 -32.5t-89.5 32.5t-46.5 92.5z" />
    <glyph glyph-name="Uring" unicode="&#x16e;" horiz-adv-x="751" 
d="M389 -15q-135 0 -213.5 69.5t-78.5 189.5v385q0 23 -25.5 38.5t-25.5 31.5t20 16h186q20 0 20 -16q0 -12 -13 -20.5t-25.5 -19.5t-12.5 -30v-371q0 -100 49.5 -150.5t141.5 -50.5q91 0 136 49.5t45 155.5v350q0 26 -26.5 47.5t-26.5 39.5q0 16 22 16h115q20 0 20 -15
q0 -11 -21 -35.5t-21 -51.5v-355q0 -273 -266 -273zM319 833q0 37 27 63t65 26t65.5 -26t27.5 -63t-27.5 -63t-65.5 -26t-65 26t-27 63zM368 833q0 -18 12.5 -31t30.5 -13q19 0 32 13t13 31t-13 31t-32 13q-18 0 -30.5 -13t-12.5 -31z" />
    <glyph glyph-name="uring" unicode="&#x16f;" horiz-adv-x="608" 
d="M234 -15q-67 0 -104.5 38t-37.5 115v243q0 13 -9 21.5t-19.5 11.5t-19.5 9t-9 16q0 13 16 21l114 60q15 8 25.5 3t10.5 -20v-340q0 -58 21 -83t71 -25q60 0 113 36v291q0 13 -9 21.5t-19 12t-19 10t-9 16.5q0 12 17 21l113 58q16 8 25.5 3t9.5 -20v-388q0 -13 8.5 -21
t19.5 -11.5t19.5 -9.5t8.5 -16q0 -13 -16 -20l-113 -50q-16 -7 -26 -2t-10 21v37q-75 -59 -172 -59zM217 643q0 35 25.5 59.5t61.5 24.5t61 -24.5t25 -59.5t-25 -59.5t-61 -24.5t-61.5 24.5t-25.5 59.5zM260 643q0 -19 12.5 -32.5t31.5 -13.5t32 13.5t13 32.5t-13 32.5
t-32 13.5t-31.5 -13.5t-12.5 -32.5z" />
    <glyph glyph-name="Uhungarumlaut" unicode="&#x170;" horiz-adv-x="751" 
d="M389 -15q-135 0 -213.5 69.5t-78.5 189.5v385q0 23 -25.5 38.5t-25.5 31.5t20 16h186q20 0 20 -16q0 -12 -13 -20.5t-25.5 -19.5t-12.5 -30v-371q0 -100 49.5 -150.5t141.5 -50.5q91 0 136 49.5t45 155.5v350q0 26 -26.5 47.5t-26.5 39.5q0 16 22 16h115q20 0 20 -15
q0 -11 -21 -35.5t-21 -51.5v-355q0 -273 -266 -273zM297 779l74 71q19 17 31 22.5t32 5.5h76q9 0 13.5 -5.5t1 -13.5t-16.5 -14l-191 -90q-17 -9 -25.5 1t5.5 23zM466 779l74 71q18 17 30 22.5t33 5.5h76q9 0 13.5 -5.5t1 -13.5t-16.5 -14l-192 -90q-16 -9 -24 1t5 23z" />
    <glyph glyph-name="uhungarumlaut" unicode="&#x171;" horiz-adv-x="608" 
d="M234 -15q-67 0 -104.5 38t-37.5 115v243q0 13 -9 21.5t-19.5 11.5t-19.5 9t-9 16q0 13 16 21l114 60q15 8 25.5 3t10.5 -20v-340q0 -58 21 -83t71 -25q60 0 113 36v291q0 13 -9 21.5t-19 12t-19 10t-9 16.5q0 12 17 21l113 58q16 8 25.5 3t9.5 -20v-388q0 -13 8.5 -21
t19.5 -11.5t19.5 -9.5t8.5 -16q0 -13 -16 -20l-113 -50q-16 -7 -26 -2t-10 21v37q-75 -59 -172 -59zM187 588l42 84q21 43 61 43h59q37 0 9 -28l-135 -123q-17 -16 -32 -7t-4 31zM335 589l54 87q23 39 53 39h77q19 0 23 -8.5t-9 -19.5l-162 -124q-18 -14 -33 -4.5t-3 30.5z
" />
    <glyph glyph-name="Uogonek" unicode="&#x172;" horiz-adv-x="751" 
d="M372 -205q-37 0 -60 18t-23 51q0 34 30 67t80 57q-147 1 -224.5 75t-77.5 210v356q0 23 -25.5 38.5t-25.5 31.5t20 16h186q20 0 20 -16q0 -12 -13 -20.5t-25.5 -19.5t-12.5 -30v-326q0 -243 191 -243q90 0 136 58.5t46 190.5v316q0 23 -25.5 41t-25.5 33q0 16 20 16h117
q20 0 20 -15q0 -10 -22 -31t-22 -44v-316q0 -131 -42 -204t-132 -106q-47 -17 -73.5 -41.5t-26.5 -53.5q0 -41 49 -41q23 0 48.5 10.5t29.5 10.5q7 0 7 -7q0 -26 -52 -54t-92 -28z" />
    <glyph glyph-name="uogonek" unicode="&#x173;" horiz-adv-x="608" 
d="M371 -193q-39 0 -62 17.5t-23 51.5q0 37 33 70t87 57v49q-74 -67 -172 -67q-67 0 -104.5 38.5t-37.5 117.5v239q0 13 -9 21.5t-19.5 11.5t-19.5 9t-9 16q0 11 16 21l114 61q15 8 25.5 2.5t10.5 -20.5v-336q0 -59 21 -85t71 -26q59 0 113 39v287q0 15 -9 24t-19 12
t-19 8.5t-9 14.5q0 11 17 20l113 60q16 8 25.5 3t9.5 -20v-384q0 -13 8.5 -21t19.5 -11.5t19.5 -9.5t8.5 -16q0 -14 -15 -20l-111 -48q-31 -14 -48.5 -36t-17.5 -44q0 -20 13 -31t35 -11q31 0 69 18q11 5 15.5 1.5t-1.5 -12.5q-17 -33 -56 -52t-83 -19z" />
    <glyph glyph-name="Wcircumflex" unicode="&#x174;" horiz-adv-x="949" 
d="M298 -12q-31 0 -42 35l-194 592q-9 26 -35 51.5t-26 34.5q0 14 18 14h195q18 0 18 -14q0 -9 -23.5 -29t-23.5 -39q0 -6 6 -26l126 -428l126 495q6 24 22.5 37t36.5 13q44 0 58 -50l134 -499l118 429q4 13 4 24q0 21 -21.5 40t-21.5 32q0 15 18 15h129q20 0 20 -15
q0 -9 -12 -17.5t-28 -25t-23 -41.5l-169 -593q-10 -35 -42 -35q-36 0 -45 35l-141 529l-138 -529q-9 -35 -44 -35zM359 779l113 91q23 20 47 0l115 -91q14 -12 7.5 -23.5t-22.5 -4.5l-124 44l-121 -44q-16 -7 -22.5 4.5t7.5 23.5z" />
    <glyph glyph-name="wcircumflex" unicode="&#x175;" horiz-adv-x="776" 
d="M238 -15q-28 0 -39 32l-134 398q-9 27 -23.5 44t-24.5 24.5t-10 14.5q0 13 16 13h179q15 0 15 -12q0 -8 -21.5 -27.5t-21.5 -38.5q0 -11 5 -26l86 -274l101 347q12 42 49 42t51 -42l108 -344l81 271q5 17 5 27q0 16 -19.5 37.5t-19.5 27.5q0 12 15 12h116q15 0 15 -12
q0 -7 -10 -15t-25 -25t-23 -43l-122 -399q-9 -32 -40 -32q-30 0 -41 32l-118 380l-111 -380q-9 -32 -39 -32zM260 582q0 10 9 20l83 93q26 32 48 32q20 0 48 -32l83 -93q9 -10 9 -20q0 -11 -10 -14.5t-23 3.5l-107 64l-106 -64q-13 -7 -23.5 -3.5t-10.5 14.5z" />
    <glyph glyph-name="Ycircumflex" unicode="&#x176;" horiz-adv-x="646" 
d="M237 0q-20 0 -20 16q0 12 13 20t26 19.5t13 30.5v253l-191 268q-16 23 -35.5 43.5t-28 30.5t-8.5 18q0 16 18 16h199q18 0 18 -14q0 -10 -22 -29t-22 -34q0 -12 11 -28l144 -202l142 215q9 14 9 26q0 13 -16 28t-16 24q0 14 18 14h132q19 0 19 -14q0 -8 -11.5 -17
t-32 -26t-35.5 -39l-173 -255v-278q0 -15 8 -25t17.5 -14t17.5 -12t8 -19q0 -16 -20 -16h-182zM216 779l113 91q23 20 47 0l115 -91q14 -12 7.5 -23.5t-22.5 -4.5l-124 44l-121 -44q-16 -7 -22.5 4.5t7.5 23.5z" />
    <glyph glyph-name="ycircumflex" unicode="&#x177;" horiz-adv-x="525" 
d="M103 -177q-39 0 -65.5 19.5t-26.5 52.5q0 26 17.5 44t46.5 18q21 0 45.5 -14t40.5 -14q19 0 33 20t43 92l-170 375q-11 24 -26.5 40.5t-25 25t-9.5 16.5q0 13 16 13h193q15 0 15 -12q0 -9 -23.5 -28.5t-23.5 -35.5q0 -9 8 -28l103 -249l102 249q6 15 6 26
q0 17 -19.5 38.5t-19.5 28.5q0 11 15 11h127q15 0 15 -12q0 -8 -22.5 -29t-33.5 -47l-195 -446q-35 -81 -75.5 -117.5t-90.5 -36.5zM147 582q0 10 9 20l83 93q26 32 48 32q20 0 48 -32l83 -93q9 -10 9 -20q0 -11 -10 -14.5t-23 3.5l-107 64l-106 -64q-13 -7 -23.5 -3.5
t-10.5 14.5z" />
    <glyph glyph-name="Ydieresis" unicode="&#x178;" horiz-adv-x="646" 
d="M237 0q-20 0 -20 16q0 12 13 20t26 19.5t13 30.5v253l-191 268q-16 23 -35.5 43.5t-28 30.5t-8.5 18q0 16 18 16h199q18 0 18 -14q0 -10 -22 -29t-22 -34q0 -12 11 -28l144 -202l142 215q9 14 9 26q0 13 -16 28t-16 24q0 14 18 14h132q19 0 19 -14q0 -8 -11.5 -17
t-32 -26t-35.5 -39l-173 -255v-278q0 -15 8 -25t17.5 -14t17.5 -12t8 -19q0 -16 -20 -16h-182zM179 827q0 29 19.5 48.5t47.5 19.5t47.5 -20t19.5 -48q0 -27 -19.5 -46.5t-47.5 -19.5t-47.5 19.5t-19.5 46.5zM394 827q0 29 20 48.5t48 19.5q27 0 46.5 -20t19.5 -48
q0 -27 -20 -46.5t-46 -19.5q-28 0 -48 19.5t-20 46.5z" />
    <glyph glyph-name="Zacute" unicode="&#x179;" horiz-adv-x="634" 
d="M64 0q-17 0 -22 10t4 25l400 635h-190q-61 0 -94 -50l-64 -93q-6 -9 -15 -11t-16 3.5t-7 16.5v138q0 41 43 41h465q17 0 22.5 -10t-3.5 -25l-395 -635h194q60 0 95 52l59 87q10 14 23.5 11t13.5 -20v-134q0 -41 -41 -41h-472zM227 790l122 63q24 14 48 14q22 0 35 -11.5
t13 -29.5q0 -20 -16 -35t-47 -19l-141 -23q-24 -4 -30.5 12t16.5 29z" />
    <glyph glyph-name="zacute" unicode="&#x17a;" horiz-adv-x="486" 
d="M65 0q-17 0 -22 10t4 25l262 435h-85q-34 0 -60.5 -18.5t-39 -40t-27 -40t-26.5 -18.5q-19 0 -19 22v106q0 30 30 30h328q18 0 23 -10.5t-4 -24.5l-260 -436h104q33 0 58.5 19t38 41.5t27 41.5t26.5 19q18 0 18 -21v-114q0 -26 -28 -26h-348zM165 607l66 74q40 46 70 46
q23 0 37.5 -15t14.5 -37q0 -38 -51 -60l-108 -49q-21 -8 -32.5 7t3.5 34z" />
    <glyph glyph-name="Zdotaccent" unicode="&#x17b;" horiz-adv-x="634" 
d="M64 0q-17 0 -22 10t4 25l400 635h-190q-61 0 -94 -50l-64 -93q-6 -9 -15 -11t-16 3.5t-7 16.5v138q0 41 43 41h465q17 0 22.5 -10t-3.5 -25l-395 -635h194q60 0 95 52l59 87q10 14 23.5 11t13.5 -20v-134q0 -41 -41 -41h-472zM255 831q0 28 20.5 48t49.5 20t49.5 -20
t20.5 -48t-20.5 -47.5t-49.5 -19.5t-49.5 19.5t-20.5 47.5z" />
    <glyph glyph-name="zdotaccent" unicode="&#x17c;" horiz-adv-x="486" 
d="M65 0q-17 0 -22 10t4 25l262 435h-85q-34 0 -60.5 -18.5t-39 -40t-27 -40t-26.5 -18.5q-19 0 -19 22v106q0 30 30 30h328q18 0 23 -10.5t-4 -24.5l-260 -436h104q33 0 58.5 19t38 41.5t27 41.5t26.5 19q18 0 18 -21v-114q0 -26 -28 -26h-348zM175 640q0 28 20.5 48
t49.5 20t49.5 -20t20.5 -48t-20.5 -47.5t-49.5 -19.5t-49.5 19.5t-20.5 47.5z" />
    <glyph glyph-name="Zcaron" unicode="&#x17d;" horiz-adv-x="634" 
d="M64 0q-17 0 -22 10t4 25l400 635h-190q-61 0 -94 -50l-64 -93q-6 -9 -15 -11t-16 3.5t-7 16.5v138q0 41 43 41h465q17 0 22.5 -10t-3.5 -25l-395 -635h194q60 0 95 52l59 87q10 14 23.5 11t13.5 -20v-134q0 -41 -41 -41h-472zM186 850q-12 11 -6 22t22 5l121 -45l123 45
q15 5 21.5 -4t-5.5 -22l-115 -93q-23 -20 -47 0z" />
    <glyph glyph-name="zcaron" unicode="&#x17e;" horiz-adv-x="486" 
d="M65 0q-17 0 -22 10t4 25l262 435h-85q-34 0 -60.5 -18.5t-39 -40t-27 -40t-26.5 -18.5q-19 0 -19 22v106q0 30 30 30h328q18 0 23 -10.5t-4 -24.5l-260 -436h104q33 0 58.5 19t38 41.5t27 41.5t26.5 19q18 0 18 -21v-114q0 -26 -28 -26h-348zM109 711q0 11 10.5 14.5
t23.5 -3.5l107 -63l106 63q13 7 23 3.5t10 -14.5q0 -9 -9 -20l-82 -92q-29 -32 -48 -32q-21 0 -49 32l-83 92q-9 11 -9 20z" />
    <glyph glyph-name="longs" unicode="&#x17f;" horiz-adv-x="326" 
d="M81 0q-9 0 -14.5 5t-5.5 12q0 13 23 26t23 26v393h-66q-17 0 -17 16v17q0 16 17 16h66l-8 50q-12 76 24 122.5t99 46.5q53 0 91 -31t38 -73q0 -24 -14 -39.5t-36 -15.5q-27 0 -42 16.5t-19 37t-14 37t-28 16.5q-24 0 -32.5 -24.5t7.5 -64.5l15 -34q19 -43 24 -60t5 -41
v-385q0 -13 22.5 -25.5t22.5 -26.5q0 -17 -21 -17h-160z" />
    <glyph glyph-name="uni018F" unicode="&#x18f;" horiz-adv-x="763" 
d="M363 -15q-131 0 -212.5 72.5t-97.5 204.5q-4 30 10.5 46.5t43.5 16.5h477q-6 309 -217 309q-51 0 -97.5 -17.5t-78 -42t-56.5 -49t-43 -42t-27 -17.5q-7 0 -9.5 7t2.5 21q40 112 128.5 174t205.5 62q146 0 232 -94.5t86 -259.5q0 -169 -95.5 -280t-251.5 -111zM193 207
q10 -87 58 -135t129 -48q85 0 139 60.5t63 179.5h-342q-26 0 -38 -15.5t-9 -41.5z" />
    <glyph glyph-name="florin" unicode="&#x192;" horiz-adv-x="595" 
d="M123 -192q-43 0 -70 19.5t-27 51.5q0 25 16.5 41t41.5 16q24 0 53.5 -26.5t51.5 -26.5q37 0 37 35q0 8 -15 46t-7 78l65 349l-63 -1q-14 -1 -22.5 5.5t-8.5 16.5v4q0 25 32 23l71 -2l7 40q19 87 67.5 133t113.5 46q44 0 71 -19.5t27 -49.5q0 -24 -16 -37.5t-40 -13.5
q-26 0 -53.5 24.5t-49.5 24.5q-23 0 -36.5 -18t-3.5 -56l18 -76l108 1q29 0 29 -23v-6q0 -10 -8.5 -16.5t-21.5 -5.5l-113 5l-73 -397q-15 -83 -63.5 -134t-117.5 -51z" />
    <glyph glyph-name="uni01B5" unicode="&#x1b5;" horiz-adv-x="640" 
d="M517 329l-143 5l-180 -289h194q60 0 95 52l59 87q10 14 23.5 11t13.5 -20v-134q0 -41 -41 -41h-472q-17 0 -22 10t4 25l189 300l-108 -2q-30 0 -30 23v4q0 23 31 23l136 -3l182 290h-190q-61 0 -94 -50l-64 -93q-6 -9 -15 -11t-16 3.5t-7 16.5v138q0 41 43 41h465
q17 0 22.5 -10t-3.5 -25l-187 -301l116 1q30 0 30 -23v-6q0 -24 -31 -22z" />
    <glyph glyph-name="uni01B6" unicode="&#x1b6;" horiz-adv-x="490" 
d="M388 228l-102 5l-115 -193h104q33 0 58.5 19t38 41.5t27 41.5t26.5 19q18 0 18 -21v-114q0 -26 -28 -26h-348q-17 0 -22 10t4 25l119 198l-71 -1q-31 0 -31 24v4q0 22 32 22l98 -3l115 191h-85q-34 0 -60.5 -18.5t-39 -40t-27 -40t-26.5 -18.5q-19 0 -19 22v106
q0 30 30 30h328q18 0 23 -10.5t-4 -24.5l-118 -198l76 1q30 0 30 -22v-6q0 -12 -9 -18t-22 -5z" />
    <glyph glyph-name="uni01EA" unicode="&#x1ea;" horiz-adv-x="807" 
d="M400 -198q-36 0 -58.5 18t-22.5 52q0 32 24.5 62.5t65.5 53.5q-161 1 -258.5 107.5t-97.5 261.5t96.5 264t253.5 109q158 0 255 -109.5t97 -263.5q0 -121 -64.5 -218.5t-174.5 -133.5q-51 -18 -78 -39.5t-27 -54.5q0 -19 13.5 -30t34.5 -11q28 0 68 19q12 5 16.5 0
t-2.5 -15q-54 -72 -141 -72zM196 341q0 -143 54 -222t153 -79q100 0 154.5 79t54.5 222v35q0 143 -54.5 222.5t-154.5 79.5q-99 0 -153 -79t-54 -223v-35z" />
    <glyph glyph-name="uni01EB" unicode="&#x1eb;" horiz-adv-x="597" 
d="M44 255q0 121 72 195.5t182 74.5t182 -74.5t72 -195.5q0 -94 -47 -161t-126 -97q-37 -14 -57.5 -40t-20.5 -54q0 -40 41 -40q20 0 56 18q10 6 15.5 1.5t0.5 -14.5q-18 -33 -50.5 -53t-74.5 -20q-38 0 -62 20.5t-24 54.5q0 67 91 115q-109 2 -179.5 76.5t-70.5 193.5z
M170 224q0 -91 33.5 -140.5t94.5 -49.5t94.5 49.5t33.5 141.5v61q0 191 -128 191t-128 -191v-62z" />
    <glyph glyph-name="Aringacute" unicode="&#x1fa;" horiz-adv-x="691" 
d="M21 0q-18 0 -18 14q0 10 11 19t27 24t24 36l206 517q8 26 6 38.5t-8 27.5t-6 22q0 17 19 17h75q27 0 36 -20l235 -599q11 -28 34.5 -49t23.5 -32q0 -15 -17 -15h-200q-18 0 -18 14q0 12 24 31t24 36q0 9 -7 28l-34 88h-286l-34 -89q-7 -17 -7 -33q0 -18 23 -34t23 -27
q0 -14 -18 -14h-138zM192 247h247l-123 322zM237 976l122 63q24 14 48 14q22 0 35 -11.5t13 -29.5q0 -20 -16 -35t-47 -19l-141 -23q-24 -4 -30.5 12t16.5 29zM242 833q0 37 27 63t65 26t65.5 -26t27.5 -63t-27.5 -63t-65.5 -26t-65 26t-27 63zM291 833q0 -18 12.5 -31
t30.5 -13q19 0 32 13t13 31t-13 31t-32 13q-18 0 -30.5 -13t-12.5 -31z" />
    <glyph glyph-name="aringacute" unicode="&#x1fb;" horiz-adv-x="530" 
d="M180 -15q-63 0 -98 35.5t-35 93.5q0 160 285 186v102q0 79 -62 79q-33 0 -57 -20t-35.5 -44.5t-31 -44.5t-44.5 -20q-23 0 -37.5 13.5t-14.5 37.5q0 48 60 85t162 37q87 0 128 -34.5t41 -103.5v-316q0 -24 17 -24q4 0 12 1.5t11 1.5q11 0 11 -14q0 -20 -23.5 -35.5
t-56.5 -15.5q-66 0 -77 75q-57 -75 -155 -75zM161 139q0 -32 20 -54t59 -22q45 0 92 41v153q-171 -22 -171 -118zM178 641q0 34 25.5 58t60.5 24t60 -24t25 -58t-25 -58.5t-60 -24.5t-60.5 24.5t-25.5 58.5zM182 770l64 72q39 45 69 45q22 0 36.5 -14.5t14.5 -36.5
q0 -36 -50 -58l-106 -48q-20 -8 -31.5 6.5t3.5 33.5zM220 641q0 -19 12.5 -32.5t31.5 -13.5t31.5 13.5t12.5 32.5q0 18 -12.5 31.5t-31.5 13.5t-31.5 -13.5t-12.5 -31.5z" />
    <glyph glyph-name="AEacute" unicode="&#x1fc;" horiz-adv-x="992" 
d="M16 0q-18 0 -18 14q0 9 10.5 18t28 26t29.5 40l292 514q13 30 4.5 41t-25.5 23.5t-17 22.5q0 6 5.5 11t14.5 5h537q51 0 51 -48v-131q0 -19 -14 -22t-24 12l-60 95q-27 43 -82 43h-166q-28 0 -28 -29v-228h120q38 0 57 33l39 61q10 18 22.5 14t12.5 -24v-219
q0 -20 -12.5 -24t-22.5 15l-39 61q-19 32 -57 32h-120v-267q0 -21 8.5 -29.5t29.5 -8.5h152q32 0 51.5 9.5t34.5 34.5l59 95q10 17 24 14t14 -22v-132q0 -50 -52 -50h-473q-20 0 -20 16q0 12 13 20.5t25.5 19.5t12.5 30v141h-224l-68 -122q-13 -32 -5.5 -42.5t24 -23
t16.5 -25.5q0 -14 -18 -14h-142zM237 278h196v353zM572 790l122 63q24 14 48 14q22 0 35 -11.5t13 -29.5q0 -20 -16 -35t-47 -19l-141 -23q-24 -4 -30.5 12t16.5 29z" />
    <glyph glyph-name="aeacute" unicode="&#x1fd;" horiz-adv-x="824" 
d="M183 -15q-66 0 -102 34.5t-36 92.5q0 82 72.5 143.5t218.5 77.5v64q0 84 -63 84q-33 0 -57 -20t-35.5 -44t-31 -44t-44.5 -20q-23 0 -37 13.5t-14 36.5q0 47 58.5 84.5t152.5 37.5q112 0 155 -65q63 65 158 65q91 0 144 -52.5t53 -124.5q0 -31 -12 -43.5t-38 -12.5h-290
q3 -103 51.5 -160t127.5 -57q43 0 75.5 17t51.5 34t28 17t11.5 -7.5t-3.5 -21.5q-22 -59 -75 -94t-127 -35q-68 0 -120 28.5t-79 76.5q-88 -105 -193 -105zM159 144q0 -36 20 -58t59 -22q66 0 119 63q-20 67 -20 160q-96 -12 -137 -53t-41 -90zM344 607l66 74q40 46 70 46
q23 0 37.5 -15t14.5 -37q0 -38 -51 -60l-108 -49q-21 -8 -32.5 7t3.5 34zM436 339h199q16 0 23 7.5t7 27.5q0 41 -25.5 72.5t-76.5 31.5q-53 0 -87.5 -35t-39.5 -104z" />
    <glyph glyph-name="Oslashacute" unicode="&#x1fe;" horiz-adv-x="811" 
d="M203 -18q-16 -26 -41 -18q-23 8 -19 30q1 10 9 20l35 45q-64 51 -99.5 130t-35.5 168q0 154 97.5 263.5t255.5 109.5q114 0 202 -61l26 46q16 29 43 21q21 -6 20 -28q-1 -10 -10 -21l-39 -51q112 -109 112 -279q0 -154 -97.5 -263t-256.5 -109q-97 0 -174 44zM198 336
q0 -129 44 -206l164 230l153 241q-55 77 -154 77t-153 -78t-54 -219v-45zM274 89q50 -52 131 -52q100 0 154.5 78.5t54.5 220.5v45q0 101 -29 171l-164 -228zM309 790l122 63q24 14 48 14q22 0 35 -11.5t13 -29.5q0 -20 -16 -35t-47 -19l-141 -23q-24 -4 -30.5 12t16.5 29z
" />
    <glyph glyph-name="oslashacute" unicode="&#x1ff;" horiz-adv-x="597" 
d="M140 -17q-12 -18 -30.5 -17t-24 15.5t7.5 34.5l30 37q-79 77 -79 202q0 121 72 195.5t182 74.5q81 0 143 -42l17 27q16 24 40 15q22 -9 15 -30l-8 -15l-24 -30q71 -74 71 -195q0 -120 -72 -195t-182 -75q-75 0 -134 36zM170 224q0 -58 14 -100l114 145l100 154
q-33 54 -100 54q-128 0 -128 -191v-62zM207 79q33 -45 91 -45q61 0 94.5 49.5t33.5 141.5v61q0 51 -9 87l-104 -134zM215 607l66 74q40 46 70 46q23 0 37.5 -15t14.5 -37q0 -38 -51 -60l-108 -49q-21 -8 -32.5 7t3.5 34z" />
    <glyph glyph-name="uni0218" unicode="&#x218;" horiz-adv-x="580" 
d="M295 -15q-95 0 -165.5 36t-70.5 97q0 33 20.5 52t52.5 19q61 0 81 -72q24 -81 106 -81q52 0 81 29t29 78q0 51 -37 89t-131 89q-94 52 -125 78q-69 59 -69 144q0 82 58.5 134.5t167.5 52.5q97 0 161.5 -40t64.5 -97q0 -29 -18 -44t-46 -15q-53 0 -74 65q-26 80 -107 80
q-51 0 -78.5 -28.5t-27.5 -73.5q0 -46 35 -80t129 -85q39 -21 59 -32t52 -35t48 -45t29 -53.5t13 -69.5q0 -84 -58.5 -138t-179.5 -54zM230 -114q0 28 19 46t47 18q30 0 51.5 -22t21.5 -62q0 -52 -35 -89.5t-88 -41.5q-16 -2 -19.5 10t11.5 17q29 9 45.5 22t16.5 25
q0 9 -11 16t-24 11.5t-24 17t-11 32.5z" />
    <glyph glyph-name="uni0219" unicode="&#x219;" horiz-adv-x="458" 
d="M233 -15q-73 0 -128.5 30.5t-55.5 80.5q0 23 13 37t35 14t37 -18t23 -39.5t30 -39.5t56 -18q36 0 57 19t21 52t-26.5 59.5t-94.5 53.5q-78 31 -110.5 70.5t-32.5 94.5q0 69 47 106.5t123 37.5q68 0 120 -28t52 -75q0 -21 -11.5 -33.5t-30.5 -12.5q-20 0 -36.5 16t-27 35
t-31.5 35t-49 16q-33 0 -52 -17.5t-19 -47.5q0 -29 23.5 -52t88.5 -49q88 -34 121.5 -77.5t33.5 -95.5q0 -74 -48 -114t-128 -40zM154 -114q0 28 19 46t47 18q30 0 51.5 -22t21.5 -62q0 -52 -35 -89.5t-88 -41.5q-16 -2 -19.5 10t11.5 17q29 9 45.5 22t16.5 25q0 9 -11 16
t-24 11.5t-24 17t-11 32.5z" />
    <glyph glyph-name="uni021A" unicode="&#x21a;" horiz-adv-x="652" 
d="M235 0q-20 0 -20 16q0 10 8 17.5t17.5 12t17.5 15t8 25.5v582q-44 0 -66 -7.5t-48 -31.5l-92 -83q-13 -13 -27 -8.5t-10 22.5l24 117q5 26 13.5 34t34.5 8q37 0 110 -2.5t121 -1.5q45 0 117.5 2t112.5 2q26 0 35 -8t14 -34l23 -117q4 -18 -9.5 -22.5t-26.5 8.5l-92 83
q-27 24 -48.5 31.5t-65.5 7.5v-582q0 -23 25.5 -38.5t25.5 -31.5t-21 -16h-181zM256 -114q0 28 19 46t47 18q30 0 51.5 -22t21.5 -62q0 -52 -35 -89.5t-88 -41.5q-16 -2 -19.5 10t11.5 17q29 9 45.5 22t16.5 25q0 9 -11 16t-24 11.5t-24 17t-11 32.5z" />
    <glyph glyph-name="uni021B" unicode="&#x21b;" horiz-adv-x="393" 
d="M224 -15q-121 0 -121 126v329q0 28 -29 28h-34q-20 0 -25 13.5t11 26.5l151 123q13 11 24 6.5t11 -21.5v-105h153q18 0 18 -17v-15q0 -17 -18 -17h-153v-350q0 -34 15 -48t50 -14q25 0 49.5 5.5t27.5 5.5q14 0 14 -12q0 -22 -45.5 -43t-98.5 -21zM155 -114q0 28 19 46
t47 18q30 0 51.5 -22t21.5 -62q0 -52 -35 -89.5t-88 -41.5q-16 -2 -19.5 10t11.5 17q29 9 45.5 22t16.5 25q0 9 -11 16t-24 11.5t-24 17t-11 32.5z" />
    <glyph glyph-name="uni0237" unicode="&#x237;" horiz-adv-x="282" 
d="M26 -214q-56 0 -90 26t-34 64q0 25 16.5 42.5t44.5 17.5q25 0 41.5 -16t22.5 -34.5t15.5 -34.5t22.5 -16q28 0 28 78v475q0 12 -8.5 19.5t-19 10.5t-19 9.5t-8.5 16.5q0 13 16 20l111 56q17 8 27 2.5t10 -20.5v-503q0 -99 -48 -156t-128 -57z" />
    <glyph glyph-name="uni0259" unicode="&#x259;" horiz-adv-x="534" 
d="M244 506q107 0 176 -74t69 -199q0 -120 -66 -193.5t-172 -73.5q-91 0 -147 52.5t-56 123.5q0 31 12 44t36 13h291q-2 103 -49.5 160t-127.5 57q-43 0 -76 -16t-52 -32.5t-28 -16.5q-11 0 -11 16q0 11 5 24q19 50 72 82.5t124 32.5zM157 124q0 -47 25 -79t77 -32
q54 0 88.5 36t38.5 102h-199q-30 0 -30 -27z" />
    <glyph glyph-name="circumflex" unicode="&#x2c6;" horiz-adv-x="324" 
d="M51 562q-13 -7 -23.5 -3.5t-10.5 14.5q0 9 9 20l83 93q26 32 48 32q20 0 48 -32l83 -93q9 -11 9 -20q0 -11 -10 -14.5t-23 3.5l-107 64z" />
    <glyph glyph-name="caron" unicode="&#x2c7;" horiz-adv-x="297" 
d="M150 558q-21 0 -49 32l-83 92q-9 10 -9 20q0 11 10.5 14.5t23.5 -3.5l107 -63l106 63q13 7 23 3.5t10 -14.5q0 -10 -9 -20l-82 -92q-29 -32 -48 -32z" />
    <glyph glyph-name="uni02C9" unicode="&#x2c9;" horiz-adv-x="391" 
d="M59 603q-20 0 -28 14.5t0 29t28 14.5h280q19 0 26.5 -14.5t0 -29t-26.5 -14.5h-280z" />
    <glyph glyph-name="breve" unicode="&#x2d8;" horiz-adv-x="334" 
d="M163 577q-51 0 -89.5 32.5t-46.5 92.5q-2 19 11.5 24t22.5 -10q20 -35 42.5 -50t59.5 -15t58.5 15t43.5 50q9 15 22 10t11 -24q-6 -60 -45 -92.5t-90 -32.5z" />
    <glyph glyph-name="dotaccent" unicode="&#x2d9;" horiz-adv-x="264" 
d="M132 573q-29 0 -49.5 19.5t-20.5 47.5t20.5 48t49.5 20t49.5 -20t20.5 -48t-20.5 -47.5t-49.5 -19.5z" />
    <glyph glyph-name="ring" unicode="&#x2da;" horiz-adv-x="324" 
d="M162 550q-36 0 -61.5 24.5t-25.5 59.5t25.5 59.5t61.5 24.5t61 -24.5t25 -59.5t-25 -59.5t-61 -24.5zM118 634q0 -19 12.5 -32.5t31.5 -13.5t32 13.5t13 32.5t-13 32.5t-32 13.5t-31.5 -13.5t-12.5 -32.5z" />
    <glyph glyph-name="ogonek" unicode="&#x2db;" horiz-adv-x="398" 
d="M192 -205q-40 0 -64.5 20.5t-24.5 54.5q0 40 33.5 73.5t90.5 56.5h91q-51 0 -84 -31t-33 -66q0 -40 42 -40q19 0 55 18q10 6 15.5 1.5t0.5 -14.5q-18 -33 -50 -53t-72 -20z" />
    <glyph glyph-name="tilde" unicode="&#x2dc;" horiz-adv-x="469" 
d="M295 582q-20 0 -38.5 7t-48.5 21.5t-61 25.5l-61 -40q-11 -7 -17.5 -1.5t-0.5 17.5q38 89 104 89q19 0 39 -7.5t51 -22t57 -23.5l63 40q10 7 16.5 2t2.5 -17q-35 -91 -106 -91z" />
    <glyph glyph-name="hungarumlaut" unicode="&#x2dd;" horiz-adv-x="459" 
d="M251 563q-18 -14 -33 -4.5t-3 30.5l54 87q23 39 53 39h77q19 0 23 -8.5t-9 -19.5zM67 588l42 84q21 43 61 43h59q37 0 9 -28l-135 -123q-17 -16 -32 -7t-4 31z" />
    <glyph glyph-name="gravecomb" unicode="&#x300;" horiz-adv-x="0" 
d="M109 615q-51 22 -51 60q0 22 14.5 37t37.5 15q30 0 70 -46l66 -74q15 -19 3.5 -34t-32.5 -7z" />
    <glyph glyph-name="acutecomb" unicode="&#x301;" horiz-adv-x="0" 
d="M121 566q-21 -8 -32.5 7t3.5 34l66 74q40 46 70 46q23 0 37.5 -15t14.5 -37q0 -38 -51 -60z" />
    <glyph glyph-name="uni0302" unicode="&#x302;" horiz-adv-x="0" 
d="M54 571q-13 -7 -23.5 -3.5t-10.5 14.5q0 10 9 20l83 93q26 32 48 32q20 0 48 -32l83 -93q9 -10 9 -20q0 -11 -10 -14.5t-23 3.5l-107 64z" />
    <glyph glyph-name="tildecomb" unicode="&#x303;" horiz-adv-x="0" 
d="M295 582q-20 0 -38.5 7t-48.5 21.5t-61 25.5l-61 -40q-11 -7 -17.5 -1.5t-0.5 17.5q38 89 104 89q19 0 39 -7.5t51 -22t57 -23.5l63 40q10 7 16.5 2t2.5 -17q-35 -91 -106 -91z" />
    <glyph glyph-name="uni0304" unicode="&#x304;" horiz-adv-x="0" 
d="M59 603q-20 0 -28 14.5t0 29t28 14.5h280q19 0 26.5 -14.5t0 -29t-26.5 -14.5h-280z" />
    <glyph glyph-name="uni0306" unicode="&#x306;" horiz-adv-x="0" 
d="M163 577q-51 0 -89.5 32.5t-46.5 92.5q-2 19 11.5 24t22.5 -10q20 -35 42.5 -50t59.5 -15t58.5 15t43.5 50q9 15 22 10t11 -24q-6 -60 -45 -92.5t-90 -32.5z" />
    <glyph glyph-name="uni0307" unicode="&#x307;" horiz-adv-x="0" 
d="M132 573q-29 0 -49.5 19.5t-20.5 47.5t20.5 48t49.5 20t49.5 -20t20.5 -48t-20.5 -47.5t-49.5 -19.5z" />
    <glyph glyph-name="uni0308" unicode="&#x308;" horiz-adv-x="0" 
d="M141 586q-30 0 -51 20.5t-21 50.5q0 29 21 49.5t51 20.5q29 0 50 -20.5t21 -49.5q0 -30 -21 -50.5t-50 -20.5zM276 657q0 29 21 49.5t50 20.5t50 -20.5t21 -49.5q0 -30 -21 -50.5t-50 -20.5t-50 20.5t-21 50.5z" />
    <glyph glyph-name="uni030A" unicode="&#x30a;" horiz-adv-x="0" 
d="M162 559q-36 0 -61.5 24.5t-25.5 59.5t25.5 59.5t61.5 24.5t61 -24.5t25 -59.5t-25 -59.5t-61 -24.5zM118 643q0 -19 12.5 -32.5t31.5 -13.5t32 13.5t13 32.5t-13 32.5t-32 13.5t-31.5 -13.5t-12.5 -32.5z" />
    <glyph glyph-name="uni030B" unicode="&#x30b;" horiz-adv-x="0" 
d="M251 563q-18 -14 -33 -4.5t-3 30.5l54 87q23 39 53 39h77q19 0 23 -8.5t-9 -19.5zM67 588l42 84q21 43 61 43h59q37 0 9 -28l-135 -123q-17 -16 -32 -7t-4 31z" />
    <glyph glyph-name="uni030C" unicode="&#x30c;" horiz-adv-x="0" 
d="M150 567q-21 0 -49 32l-83 92q-9 11 -9 20q0 11 10.5 14.5t23.5 -3.5l107 -63l106 63q13 7 23 3.5t10 -14.5q0 -9 -9 -20l-82 -92q-29 -32 -48 -32z" />
    <glyph glyph-name="uni0312" unicode="&#x312;" horiz-adv-x="0" 
d="M183 753q16 2 19.5 -10t-11.5 -17q-29 -9 -45.5 -22t-16.5 -25q0 -9 11 -16t24 -11.5t24 -17t11 -32.5q0 -28 -19 -46t-47 -18q-30 0 -51.5 22t-21.5 62q0 52 35 89.5t88 41.5z" />
    <glyph glyph-name="uni0326" unicode="&#x326;" horiz-adv-x="0" 
d="M68 -265q-16 -2 -19.5 10t11.5 17q29 9 45.5 22t16.5 25q0 9 -11 16t-24 11.5t-24 17t-11 32.5q0 28 19 46t47 18q30 0 51.5 -22t21.5 -62q0 -52 -35 -89.5t-88 -41.5z" />
    <glyph glyph-name="uni0327" unicode="&#x327;" horiz-adv-x="0" 
d="M135 7h43l-45 -57q60 0 93 -20.5t33 -54.5q0 -38 -39 -63.5t-106 -25.5q-46 0 -72 15.5t-26 38.5q0 18 12 29.5t30 11.5q15 0 45 -14t52 -14q42 0 42 32q0 24 -33 24q-8 0 -25 -2t-25 -2q-35 0 -35 26q0 13 19 36z" />
    <glyph glyph-name="uni0328" unicode="&#x328;" horiz-adv-x="0" 
d="M192 -205q-40 0 -64.5 20.5t-24.5 54.5q0 40 33.5 73.5t90.5 56.5h91q-51 0 -84 -31t-33 -66q0 -40 42 -40q19 0 55 18q10 6 15.5 1.5t0.5 -14.5q-18 -33 -50 -53t-72 -20z" />
    <glyph glyph-name="uni0335" unicode="&#x335;" horiz-adv-x="0" 
d="M87 264q-18 0 -18 17v22q0 18 18 18h435q18 0 18 -18v-22q0 -17 -18 -17h-435z" />
    <glyph glyph-name="uni0336" unicode="&#x336;" horiz-adv-x="0" 
d="M39 264q-17 0 -17 17v23q0 18 17 18h765q17 0 17 -18v-23q0 -17 -17 -17h-765z" />
    <glyph glyph-name="uni0337" unicode="&#x337;" horiz-adv-x="0" 
d="M131 0q-19 0 -14 20l241 680q8 15 21 15h25q23 0 15 -20l-241 -679q-6 -16 -22 -16h-25z" />
    <glyph glyph-name="uni0338" unicode="&#x338;" horiz-adv-x="0" 
d="M78 -153q-20 0 -14 21l295 832q5 15 20 15h26q20 0 14 -20l-294 -831q-6 -17 -24 -17h-23z" />
    <glyph glyph-name="uni0394" unicode="&#x394;" horiz-adv-x="728" 
d="M30 0q-16 0 -22 9t2 25l335 661q7 16 19 16t19 -16l336 -661q7 -16 1.5 -25t-21.5 -9h-669zM67 67h500l-251 496z" />
    <glyph glyph-name="uni03A9" unicode="&#x3a9;" horiz-adv-x="836" 
d="M99 0q-35 0 -35 35v120q0 14 8 16.5t17 -7.5l69 -84h122q-106 111 -150.5 184t-44.5 161q0 127 96.5 216t236.5 89t237 -89t97 -216q0 -88 -45 -160.5t-152 -184.5h123l69 84q9 10 17 7.5t8 -16.5v-120q0 -35 -35 -35h-257q-12 0 -17 7t1 17q80 139 114.5 228t34.5 176
q0 68 -18.5 123.5t-64.5 94.5t-112 39t-112 -39t-64.5 -94.5t-18.5 -123.5q0 -87 34.5 -176t114.5 -228q5 -10 0.5 -17t-16.5 -7h-257z" />
    <glyph glyph-name="uni03BC" unicode="&#x3bc;" horiz-adv-x="609" 
d="M113 -183q-28 0 -44 19t-16 47q0 17 10.5 47t20.5 86t10 136v229q0 13 -9 21.5t-19.5 11.5t-19.5 9t-9 16q0 13 16 21l114 60q15 8 25.5 3t10.5 -20v-340q0 -58 21 -83t71 -25q60 0 113 36v291q0 13 -9 21.5t-19 12t-19 10t-9 16.5q0 12 17 21l113 58q16 8 25.5 3
t9.5 -20v-388q0 -13 8.5 -21t19.5 -11.5t19.5 -9.5t8.5 -16q0 -13 -16 -20l-113 -50q-16 -7 -26 -2t-10 21v37q-75 -59 -172 -59q-60 0 -95 29q6 -35 18.5 -74.5t12.5 -56.5q0 -29 -15.5 -47.5t-43.5 -18.5z" />
    <glyph glyph-name="pi" unicode="&#x3c0;" horiz-adv-x="636" 
d="M89 0q-21 0 -21 17q0 13 23 25.5t23 23.5v323q0 29 -28 29h-42q-19 0 -19 17v25q0 18 19 18h550q18 0 18 -18v-25q0 -17 -18 -17h-43q-29 0 -29 -29v-323q0 -11 23 -23.5t23 -25.5q0 -17 -20 -17h-160q-20 0 -20 17q0 13 22.5 25.5t22.5 23.5v352h-190v-352
q0 -10 23.5 -23t23.5 -26q0 -17 -21 -17h-160z" />
    <glyph glyph-name="Wgrave" unicode="&#x1e80;" horiz-adv-x="949" 
d="M298 -12q-31 0 -42 35l-194 592q-9 26 -35 51.5t-26 34.5q0 14 18 14h195q18 0 18 -14q0 -9 -23.5 -29t-23.5 -39q0 -6 6 -26l126 -428l126 495q6 24 22.5 37t36.5 13q44 0 58 -50l134 -499l118 429q4 13 4 24q0 21 -21.5 40t-21.5 32q0 15 18 15h129q20 0 20 -15
q0 -9 -12 -17.5t-28 -25t-23 -41.5l-169 -593q-10 -35 -42 -35q-36 0 -45 35l-141 529l-138 -529q-9 -35 -44 -35zM353 826q0 18 13 29.5t35 11.5q24 0 48 -14l121 -62q23 -13 17.5 -29.5t-30.5 -12.5l-141 23q-31 4 -47 19t-16 35z" />
    <glyph glyph-name="wgrave" unicode="&#x1e81;" horiz-adv-x="776" 
d="M238 -15q-28 0 -39 32l-134 398q-9 27 -23.5 44t-24.5 24.5t-10 14.5q0 13 16 13h179q15 0 15 -12q0 -8 -21.5 -27.5t-21.5 -38.5q0 -11 5 -26l86 -274l101 347q12 42 49 42t51 -42l108 -344l81 271q5 17 5 27q0 16 -19.5 37.5t-19.5 27.5q0 12 15 12h116q15 0 15 -12
q0 -7 -10 -15t-25 -25t-23 -43l-122 -399q-9 -32 -40 -32q-30 0 -41 32l-118 380l-111 -380q-9 -32 -39 -32zM293 675q0 22 14.5 37t37.5 15q30 0 70 -46l66 -74q15 -19 3.5 -34t-32.5 -7l-108 49q-51 22 -51 60z" />
    <glyph glyph-name="Wacute" unicode="&#x1e82;" horiz-adv-x="949" 
d="M298 -12q-31 0 -42 35l-194 592q-9 26 -35 51.5t-26 34.5q0 14 18 14h195q18 0 18 -14q0 -9 -23.5 -29t-23.5 -39q0 -6 6 -26l126 -428l126 495q6 24 22.5 37t36.5 13q44 0 58 -50l134 -499l118 429q4 13 4 24q0 21 -21.5 40t-21.5 32q0 15 18 15h129q20 0 20 -15
q0 -9 -12 -17.5t-28 -25t-23 -41.5l-169 -593q-10 -35 -42 -35q-36 0 -45 35l-141 529l-138 -529q-9 -35 -44 -35zM398 790l122 63q24 14 48 14q22 0 35 -11.5t13 -29.5q0 -20 -16 -35t-47 -19l-141 -23q-24 -4 -30.5 12t16.5 29z" />
    <glyph glyph-name="wacute" unicode="&#x1e83;" horiz-adv-x="776" 
d="M238 -15q-28 0 -39 32l-134 398q-9 27 -23.5 44t-24.5 24.5t-10 14.5q0 13 16 13h179q15 0 15 -12q0 -8 -21.5 -27.5t-21.5 -38.5q0 -11 5 -26l86 -274l101 347q12 42 49 42t51 -42l108 -344l81 271q5 17 5 27q0 16 -19.5 37.5t-19.5 27.5q0 12 15 12h116q15 0 15 -12
q0 -7 -10 -15t-25 -25t-23 -43l-122 -399q-9 -32 -40 -32q-30 0 -41 32l-118 380l-111 -380q-9 -32 -39 -32zM318 607l66 74q40 46 70 46q23 0 37.5 -15t14.5 -37q0 -38 -51 -60l-108 -49q-21 -8 -32.5 7t3.5 34z" />
    <glyph glyph-name="Wdieresis" unicode="&#x1e84;" horiz-adv-x="949" 
d="M298 -12q-31 0 -42 35l-194 592q-9 26 -35 51.5t-26 34.5q0 14 18 14h195q18 0 18 -14q0 -9 -23.5 -29t-23.5 -39q0 -6 6 -26l126 -428l126 495q6 24 22.5 37t36.5 13q44 0 58 -50l134 -499l118 429q4 13 4 24q0 21 -21.5 40t-21.5 32q0 15 18 15h129q20 0 20 -15
q0 -9 -12 -17.5t-28 -25t-23 -41.5l-169 -593q-10 -35 -42 -35q-36 0 -45 35l-141 529l-138 -529q-9 -35 -44 -35zM321 827q0 29 19.5 48.5t47.5 19.5t47.5 -20t19.5 -48q0 -27 -19.5 -46.5t-47.5 -19.5t-47.5 19.5t-19.5 46.5zM536 827q0 29 20 48.5t48 19.5q27 0 46.5 -20
t19.5 -48q0 -27 -20 -46.5t-46 -19.5q-28 0 -48 19.5t-20 46.5z" />
    <glyph glyph-name="wdieresis" unicode="&#x1e85;" horiz-adv-x="776" 
d="M238 -15q-28 0 -39 32l-134 398q-9 27 -23.5 44t-24.5 24.5t-10 14.5q0 13 16 13h179q15 0 15 -12q0 -8 -21.5 -27.5t-21.5 -38.5q0 -11 5 -26l86 -274l101 347q12 42 49 42t51 -42l108 -344l81 271q5 17 5 27q0 16 -19.5 37.5t-19.5 27.5q0 12 15 12h116q15 0 15 -12
q0 -7 -10 -15t-25 -25t-23 -43l-122 -399q-9 -32 -40 -32q-30 0 -41 32l-118 380l-111 -380q-9 -32 -39 -32zM226 657q0 29 21 49.5t51 20.5q29 0 50 -20.5t21 -49.5q0 -30 -21 -50.5t-50 -20.5q-30 0 -51 20.5t-21 50.5zM433 657q0 29 21 49.5t50 20.5t50 -20.5t21 -49.5
q0 -30 -21 -50.5t-50 -20.5t-50 20.5t-21 50.5z" />
    <glyph glyph-name="uni1E8A" unicode="&#x1e8a;" horiz-adv-x="651" 
d="M413 0q-18 0 -18 14q0 10 22.5 29.5t22.5 34.5q0 10 -11 27l-124 190l-126 -197q-11 -17 -11 -29q0 -13 22.5 -28.5t22.5 -27.5q0 -13 -17 -13h-165q-19 0 -19 14q0 10 14 19t37 25t38 38l171 251l-171 263q-16 25 -34 44.5t-26.5 28.5t-8.5 17q0 15 18 15h204
q17 0 17 -14q0 -11 -22.5 -30t-22.5 -33q0 -10 12 -28l109 -170l116 184q11 16 11 26t-16.5 26t-16.5 26q0 13 18 13h144q18 0 18 -14q0 -10 -14 -19.5t-36.5 -25.5t-37.5 -37l-154 -227l186 -287q16 -24 34.5 -43t27.5 -28t9 -18q0 -16 -19 -16h-204zM284 831q0 28 20.5 48
t49.5 20t49.5 -20t20.5 -48t-20.5 -47.5t-49.5 -19.5t-49.5 19.5t-20.5 47.5z" />
    <glyph glyph-name="uni1E8B" unicode="&#x1e8b;" horiz-adv-x="525" 
d="M291 0q-15 0 -15 12q0 9 22.5 26t22.5 34q0 12 -11 29l-68 97l-70 -97q-21 -30 -21 -42q0 -11 15.5 -24t15.5 -23q0 -12 -16 -12h-133q-16 0 -16 13q0 8 12 16.5t33.5 25t37.5 37.5l113 148l-120 169q-17 24 -37 43.5t-29.5 29t-9.5 16.5q0 13 18 13h198q16 0 16 -13
q0 -8 -11 -16.5t-22.5 -19t-11.5 -24.5q0 -11 11 -28l61 -92l76 97q20 26 20 36t-16.5 25.5t-16.5 22.5q0 12 15 12h129q15 0 15 -13q0 -7 -11 -15.5t-32.5 -25.5t-38.5 -38l-113 -142l129 -175q18 -24 37.5 -43.5l28.5 -28.5t9 -17q0 -13 -17 -13h-199zM222 640
q0 28 20.5 48t49.5 20t49.5 -20t20.5 -48t-20.5 -47.5t-49.5 -19.5t-49.5 19.5t-20.5 47.5z" />
    <glyph glyph-name="uni1E9E" unicode="&#x1e9e;" horiz-adv-x="635" 
d="M461 -12q-36 0 -60 16.5t-24 35.5q0 14 12 14q3 0 11.5 -2t18.5 -2q28 0 41 16.5t13 53.5q0 34 -19.5 79.5t-43 82t-43 79.5t-19.5 73q0 42 17.5 70t35 51t17.5 51q0 66 -88 66q-60 0 -85.5 -28.5t-25.5 -87.5v-470q0 -25 25.5 -40.5t25.5 -29.5q0 -16 -21 -16h-181
q-9 0 -14.5 5t-5.5 11q0 12 13 20.5t26 19.5t13 30v449q0 86 57.5 133t158.5 47h19q198 0 198 -96q0 -42 -48 -70q-37 -19 -37 -60q0 -32 21.5 -76.5t47.5 -82.5t47.5 -93t21.5 -106q0 -62 -31 -102.5t-94 -40.5z" />
    <glyph glyph-name="Ygrave" unicode="&#x1ef2;" horiz-adv-x="646" 
d="M237 0q-20 0 -20 16q0 12 13 20t26 19.5t13 30.5v253l-191 268q-16 23 -35.5 43.5t-28 30.5t-8.5 18q0 16 18 16h199q18 0 18 -14q0 -10 -22 -29t-22 -34q0 -12 11 -28l144 -202l142 215q9 14 9 26q0 13 -16 28t-16 24q0 14 18 14h132q19 0 19 -14q0 -8 -11.5 -17
t-32 -26t-35.5 -39l-173 -255v-278q0 -15 8 -25t17.5 -14t17.5 -12t8 -19q0 -16 -20 -16h-182zM210 826q0 18 13 29.5t35 11.5q24 0 48 -14l121 -62q23 -13 17.5 -29.5t-30.5 -12.5l-141 23q-31 4 -47 19t-16 35z" />
    <glyph glyph-name="ygrave" unicode="&#x1ef3;" horiz-adv-x="525" 
d="M103 -177q-39 0 -65.5 19.5t-26.5 52.5q0 26 17.5 44t46.5 18q21 0 45.5 -14t40.5 -14q19 0 33 20t43 92l-170 375q-11 24 -26.5 40.5t-25 25t-9.5 16.5q0 13 16 13h193q15 0 15 -12q0 -9 -23.5 -28.5t-23.5 -35.5q0 -9 8 -28l103 -249l102 249q6 15 6 26
q0 17 -19.5 38.5t-19.5 28.5q0 11 15 11h127q15 0 15 -12q0 -8 -22.5 -29t-33.5 -47l-195 -446q-35 -81 -75.5 -117.5t-90.5 -36.5zM180 675q0 22 14.5 37t37.5 15q30 0 70 -46l66 -74q15 -19 3.5 -34t-32.5 -7l-108 49q-51 22 -51 60z" />
    <glyph glyph-name="endash" unicode="&#x2013;" horiz-adv-x="590" 
d="M76 264q-17 0 -17 17v22q0 18 17 18h436q18 0 18 -18v-22q0 -17 -18 -17h-436z" />
    <glyph glyph-name="emdash" unicode="&#x2014;" horiz-adv-x="918" 
d="M76 264q-17 0 -17 17v23q0 18 17 18h765q17 0 17 -18v-23q0 -17 -17 -17h-765z" />
    <glyph glyph-name="quoteleft" unicode="&#x2018;" horiz-adv-x="265" 
d="M50 576q0 61 39.5 103.5t99.5 47.5q18 1 21.5 -12t-12.5 -18q-59 -18 -68 -46q-6 -18 18 -23q30 -7 45.5 -22t15.5 -46q0 -30 -22 -50.5t-55 -20.5t-57.5 24t-24.5 63z" />
    <glyph glyph-name="quoteright" unicode="&#x2019;" horiz-adv-x="271" 
d="M225 641q0 -61 -39.5 -103.5t-99.5 -47.5q-18 -1 -21.5 12t12.5 18q59 18 68 46q6 18 -18 23q-30 7 -45.5 22t-15.5 46q0 30 22 50.5t55 20.5t57.5 -24t24.5 -63z" />
    <glyph glyph-name="quotesinglbase" unicode="&#x201a;" horiz-adv-x="277" 
d="M218 55q0 -61 -39.5 -103.5t-99.5 -47.5q-18 -1 -21.5 12t12.5 18q59 18 68 46q6 18 -18 23q-30 7 -45.5 22t-15.5 46q0 30 22 50.5t55 20.5t57.5 -24t24.5 -63z" />
    <glyph glyph-name="quotedblleft" unicode="&#x201c;" horiz-adv-x="447" 
d="M51 577q0 61 39.5 103.5t99.5 47.5q18 1 21.5 -12t-12.5 -18q-59 -18 -68 -46q-6 -18 18 -23q30 -7 45.5 -22t15.5 -46q0 -30 -22 -50.5t-55 -20.5t-57.5 24t-24.5 63zM231 577q0 61 39.5 103.5t99.5 47.5q18 1 21.5 -12t-12.5 -18q-59 -18 -68 -46q-6 -18 18 -23
q30 -7 45.5 -22t15.5 -46q0 -30 -22 -50.5t-55 -20.5t-57.5 24t-24.5 63z" />
    <glyph glyph-name="quotedblright" unicode="&#x201d;" horiz-adv-x="449" 
d="M404 644q0 -61 -39.5 -103.5t-99.5 -47.5q-18 -1 -21.5 12t12.5 18q59 18 68 46q6 18 -18 23q-30 7 -45.5 22t-15.5 46q0 30 22 50.5t55 20.5t57.5 -24t24.5 -63zM65 660q0 30 22 50.5t55 20.5t57.5 -24t24.5 -63q0 -61 -39.5 -103.5t-99.5 -47.5q-18 -1 -21.5 12
t12.5 18q59 18 68 46q6 18 -18 23q-30 7 -45.5 22t-15.5 46z" />
    <glyph glyph-name="quotedblbase" unicode="&#x201e;" horiz-adv-x="448" 
d="M394 84q0 -61 -39.5 -103.5t-99.5 -47.5q-18 -1 -21.5 12t12.5 18q59 18 68 46q6 18 -18 23q-30 7 -45.5 22t-15.5 46q0 30 22 50.5t55 20.5t57.5 -24t24.5 -63zM55 100q0 30 22 50.5t55 20.5t57.5 -24t24.5 -63q0 -61 -39.5 -103.5t-99.5 -47.5q-18 -1 -21.5 12t12.5 18
q59 18 68 46q6 18 -18 23q-30 7 -45.5 22t-15.5 46z" />
    <glyph glyph-name="dagger" unicode="&#x2020;" horiz-adv-x="494" 
d="M247 -71q-50 0 -47 66l28 495q-36 0 -80 -15.5t-62 -15.5q-24 0 -40.5 12.5t-16.5 37.5q0 26 16.5 38t40.5 12q18 0 62 -16t80 -16q0 37 -15 81t-15 62q0 24 12 40.5t37 16.5q26 0 38 -16.5t12 -40.5q0 -19 -15.5 -63t-15.5 -80q36 0 80 16t62 16q24 0 40.5 -12t16.5 -38
q0 -25 -16.5 -37.5t-40.5 -12.5q-18 0 -62 15.5t-80 15.5l29 -495q3 -66 -48 -66z" />
    <glyph glyph-name="daggerdbl" unicode="&#x2021;" horiz-adv-x="522" 
d="M261 -71q-25 0 -37 15.5t-12 36.5q0 15 14 57.5t14 77.5q-40 0 -82.5 -13.5t-56.5 -13.5q-22 0 -38.5 11.5t-16.5 34.5q0 24 16.5 35.5t38.5 11.5q14 0 56.5 -13.5t81.5 -13.5q1 61 -13 111t-14 67q0 7 13.5 56t13.5 112q-39 0 -81.5 -13.5t-56.5 -13.5q-22 0 -38.5 11.5
t-16.5 34.5q0 24 16.5 35.5t38.5 11.5q14 0 56.5 -13.5t82.5 -13.5q0 35 -14 77t-14 58q0 21 12 36.5t37 15.5t37 -15.5t12 -36.5q0 -16 -14 -58t-14 -77q39 0 82 13.5t57 13.5q22 0 38.5 -11.5t16.5 -35.5q0 -23 -16.5 -34.5t-38.5 -11.5q-14 0 -56.5 13.5t-82.5 13.5
q0 -62 14.5 -107t14.5 -60t-14.5 -66.5t-14.5 -112.5q40 0 82.5 13.5t56.5 13.5q22 0 38.5 -11.5t16.5 -35.5q0 -23 -16.5 -34.5t-38.5 -11.5q-14 0 -57 13.5t-82 13.5q0 -35 14 -77.5t14 -57.5q0 -21 -12 -36.5t-37 -15.5z" />
    <glyph glyph-name="bullet" unicode="&#x2022;" horiz-adv-x="397" 
d="M199 216q-55 0 -94 38.5t-39 93.5q0 56 39 94.5t94 38.5t93.5 -39t38.5 -94t-38.5 -93.5t-93.5 -38.5z" />
    <glyph glyph-name="ellipsis" unicode="&#x2026;" horiz-adv-x="669" 
d="M130 -13q-30 0 -51 20.5t-21 50.5q0 31 21 51.5t51 20.5t51 -20.5t21 -51.5q0 -30 -21 -50.5t-51 -20.5zM263 58q0 31 20.5 51.5t50.5 20.5q31 0 51.5 -20.5t20.5 -51.5q0 -30 -20.5 -50.5t-51.5 -20.5q-30 0 -50.5 20.5t-20.5 50.5zM467 58q0 31 21 51.5t52 20.5
q30 0 51 -21t21 -51t-21 -50.5t-51 -20.5q-31 0 -52 20.5t-21 50.5z" />
    <glyph glyph-name="perthousand" unicode="&#x2030;" horiz-adv-x="1232" 
d="M248 11q-11 -18 -28.5 -18t-23.5 14t5 33l218 300l184 303q11 18 29 18t24 -13.5t-6 -33.5l-218 -302zM42 450q0 89 50 148.5t124 59.5t124.5 -59.5t50.5 -148.5t-50.5 -148.5t-124.5 -59.5t-124 59.5t-50 148.5zM146 398q0 -119 70 -119q71 0 71 119v104q0 119 -71 119
q-70 0 -70 -119v-104zM452 195q0 89 50 148.5t124 59.5t124.5 -59.5t50.5 -148.5t-50.5 -148.5t-124.5 -59.5t-124 59.5t-50 148.5zM556 143q0 -119 70 -119q71 0 71 119v104q0 119 -71 119q-70 0 -70 -119v-104zM832 195q0 89 50 148.5t124 59.5t124.5 -59.5t50.5 -148.5
t-50.5 -148.5t-124.5 -59.5t-124 59.5t-50 148.5zM936 143q0 -119 70 -119q71 0 71 119v104q0 119 -71 119q-70 0 -70 -119v-104z" />
    <glyph glyph-name="guilsinglleft" unicode="&#x2039;" horiz-adv-x="342" 
d="M68 241q-33 31 0 61l203 181q7 6 12.5 2t1.5 -12l-85 -160q-20 -41 0 -82l85 -160q4 -8 -1.5 -12t-12.5 2z" />
    <glyph glyph-name="guilsinglright" unicode="&#x203a;" horiz-adv-x="342" 
d="M71 61q-7 -6 -12.5 -2t-1.5 12l85 160q20 41 0 82l-85 160q-4 8 1.5 12t12.5 -2l203 -181q33 -30 0 -61z" />
    <glyph glyph-name="fraction" unicode="&#x2044;" horiz-adv-x="150" 
d="M-107 11q-11 -18 -28.5 -18t-23.5 14t5 33l218 300l184 303q11 18 29 18t24 -13.5t-6 -33.5l-218 -302z" />
    <glyph glyph-name="uni2070" unicode="&#x2070;" horiz-adv-x="435" 
d="M217 389q-74 0 -124 59.5t-50 148.5t50 148.5t124 59.5t124.5 -59.5t50.5 -148.5t-50.5 -148.5t-124.5 -59.5zM147 545q0 -119 70 -119q71 0 71 119v104q0 119 -71 119q-70 0 -70 -119v-104z" />
    <glyph glyph-name="uni2074" unicode="&#x2074;" horiz-adv-x="390" 
d="M183 400q-16 0 -16 12q0 8 21.5 23t21.5 32v39h-171q-15 0 -15 16v28q0 10 7 20l184 215q6 10 18 10h42q16 0 16 -18v-216h55q12 0 9 -13l-9 -32q-1 -10 -13 -10h-42v-39q0 -17 22 -31t22 -24q0 -12 -16 -12h-136zM75 561h134v157z" />
    <glyph glyph-name="uni2075" unicode="&#x2075;" horiz-adv-x="366" 
d="M170 389q-58 0 -92 25.5t-34 63.5q0 20 11.5 34.5t34.5 14.5q27 0 37 -17t8.5 -38t7 -38t31.5 -17q63 0 63 97q0 48 -17 71t-55 23q-25 0 -55.5 -11.5t-39.5 -11.5q-17 0 -15 18l15 167q3 23 26 23h204q16 0 13 -16l-5 -32q-4 -21 -32 -21h-170l-8 -100q45 32 106 32
q117 0 117 -114q0 -67 -40.5 -110t-110.5 -43z" />
    <glyph glyph-name="uni2076" unicode="&#x2076;" horiz-adv-x="368" 
d="M185 389q-67 0 -105.5 42.5t-38.5 111.5q0 93 67.5 170t165.5 97q12 2 14.5 -4.5t-6.5 -11.5q-101 -57 -139 -154q37 24 77 24q48 0 78.5 -31t30.5 -89q0 -70 -41 -112.5t-103 -42.5zM124 536q0 -119 63 -119q59 0 59 119q1 45 -17 69t-51 24q-22 0 -43 -13
q-11 -41 -11 -80z" />
    <glyph glyph-name="uni2077" unicode="&#x2077;" horiz-adv-x="325" 
d="M76 400q-10 0 -13 6.5t2 15.5l188 302h-152q-21 0 -38 -8l-16 -7q-9 -5 -14.5 -0.5t-1.5 14.5l16 56q3 14 17 14h222q11 0 16 -6.5t0 -17.5l-140 -353q-6 -16 -24 -16h-62z" />
    <glyph glyph-name="uni2078" unicode="&#x2078;" horiz-adv-x="377" 
d="M46 490q0 38 24.5 65.5t64.5 34.5q-41 24 -60 48t-19 57q0 49 36.5 79.5t95.5 30.5q58 0 93.5 -26.5t35.5 -69.5q0 -64 -75 -92q50 -29 71 -55t21 -58q0 -52 -38 -83.5t-103 -31.5q-70 0 -108.5 28.5t-38.5 72.5zM122 726q0 -26 20 -45t75 -49q30 25 30 74q0 31 -16 51
t-49 20q-27 0 -43.5 -14t-16.5 -37zM124 493q0 -36 19.5 -56t52.5 -20q30 0 47.5 16t17.5 45q0 26 -22 46.5t-76 50.5q-39 -31 -39 -82z" />
    <glyph glyph-name="uni2079" unicode="&#x2079;" horiz-adv-x="366" 
d="M71 384q-11 -2 -13.5 4.5t5.5 11.5q131 68 165 166q-38 -21 -79 -21q-48 0 -78 30t-30 84q0 66 40 106t101 40q68 0 105.5 -42.5t37.5 -111.5q0 -101 -70.5 -174t-183.5 -93zM121 667q0 -40 17 -62t47 -22q28 0 52 15q6 28 6 61q0 118 -58 118q-62 0 -64 -110z" />
    <glyph glyph-name="uni2080" unicode="&#x2080;" horiz-adv-x="435" 
d="M217 -154q-74 0 -124 59.5t-50 148.5t50 148.5t124 59.5t124.5 -59.5t50.5 -148.5t-50.5 -148.5t-124.5 -59.5zM147 2q0 -119 70 -119q71 0 71 119v104q0 119 -71 119q-70 0 -70 -119v-104z" />
    <glyph glyph-name="uni2081" unicode="&#x2081;" horiz-adv-x="271" 
d="M68 -141q-17 0 -17 12q0 9 22 24t22 32v237l-50 13q-9 2 -11.5 7t0.5 10.5t10 9.5l117 54q11 4 18 0.5t7 -11.5v-320q0 -17 22 -31.5t22 -24.5q0 -12 -17 -12h-145z" />
    <glyph glyph-name="uni2082" unicode="&#x2082;" horiz-adv-x="379" 
d="M56 -142q-13 0 -16 10.5t9 20.5q95 79 136.5 138.5t41.5 127.5q0 74 -49 74q-43 0 -43 -41q0 -12 8 -28t8 -26q0 -18 -13.5 -31t-36.5 -13q-26 0 -41 16.5t-15 42.5q0 47 40 80t102 33q66 0 103.5 -32.5t37.5 -84.5q0 -50 -43.5 -102.5t-146.5 -125.5h102q27 0 37 19
l25 44q7 10 15 8t8 -12v-104q0 -14 -17 -14h-252z" />
    <glyph glyph-name="uni2083" unicode="&#x2083;" horiz-adv-x="373" 
d="M152 72q43 12 58.5 31t15.5 55q0 71 -53 71q-20 0 -32.5 -10t-12.5 -22q0 -7 10.5 -21.5t10.5 -28.5q0 -18 -13 -29.5t-34 -11.5q-26 0 -40 15.5t-14 41.5q0 44 38.5 70t96.5 26q57 0 95 -26t38 -72q0 -70 -83 -90q44 -9 70 -35.5t26 -66.5q0 -55 -43 -89t-115 -34
q-62 0 -94.5 24.5t-32.5 58.5q0 23 13.5 36t35.5 13q44 0 44 -48q0 -25 8.5 -37.5t32.5 -12.5q28 0 42.5 22t14.5 58q0 37 -18 58.5t-62 27.5q-15 1 -15.5 12t12.5 14z" />
    <glyph glyph-name="uni2084" unicode="&#x2084;" horiz-adv-x="390" 
d="M183 -141q-16 0 -16 12q0 9 21.5 23t21.5 32v39h-171q-15 0 -15 16v28q0 10 7 20l184 215q6 10 18 10h42q16 0 16 -18v-216h55q12 0 9 -13l-9 -32q-1 -10 -13 -10h-42v-39q0 -17 22 -31t22 -24q0 -12 -16 -12h-136zM75 20h134v157z" />
    <glyph glyph-name="uni2085" unicode="&#x2085;" horiz-adv-x="366" 
d="M170 -152q-58 0 -92 25.5t-34 63.5q0 20 11.5 34.5t34.5 14.5q27 0 37 -17t8.5 -38t7 -38t31.5 -17q63 0 63 97q0 48 -17 71t-55 23q-25 0 -55.5 -11.5t-39.5 -11.5q-17 0 -15 18l15 167q3 23 26 23h204q16 0 13 -16l-5 -32q-4 -21 -32 -21h-170l-8 -100q45 32 106 32
q117 0 117 -114q0 -67 -40.5 -110t-110.5 -43z" />
    <glyph glyph-name="uni2086" unicode="&#x2086;" horiz-adv-x="368" 
d="M185 -154q-67 0 -105.5 42.5t-38.5 111.5q0 93 67.5 170t165.5 97q12 2 14.5 -4.5t-6.5 -11.5q-101 -57 -139 -154q37 24 77 24q48 0 78.5 -31t30.5 -89q0 -70 -41 -112.5t-103 -42.5zM124 -7q0 -119 63 -119q59 0 59 119q1 45 -17 69t-51 24q-22 0 -43 -13
q-11 -41 -11 -80z" />
    <glyph glyph-name="uni2087" unicode="&#x2087;" horiz-adv-x="325" 
d="M76 -141q-10 0 -13 6.5t2 15.5l188 302h-152q-21 0 -38 -8l-16 -7q-9 -5 -14.5 -0.5t-1.5 14.5l16 56q3 14 17 14h222q11 0 16 -7t0 -17l-140 -353q-6 -16 -24 -16h-62z" />
    <glyph glyph-name="uni2088" unicode="&#x2088;" horiz-adv-x="377" 
d="M46 -53q0 38 24.5 65.5t64.5 34.5q-41 24 -60 48t-19 57q0 49 36.5 79.5t95.5 30.5q58 0 93.5 -26.5t35.5 -69.5q0 -64 -75 -92q50 -29 71 -55t21 -58q0 -52 -38 -83.5t-103 -31.5q-70 0 -108.5 28.5t-38.5 72.5zM122 183q0 -26 20 -45t75 -49q30 25 30 74q0 31 -16 51
t-49 20q-27 0 -43.5 -14t-16.5 -37zM124 -50q0 -36 19.5 -56t52.5 -20q30 0 47.5 16t17.5 45q0 26 -22 46.5t-76 50.5q-39 -31 -39 -82z" />
    <glyph glyph-name="uni2089" unicode="&#x2089;" horiz-adv-x="366" 
d="M71 -160q-11 -2 -13.5 4.5t5.5 11.5q131 68 165 166q-38 -21 -79 -21q-48 0 -78 30t-30 84q0 66 40 106t101 40q68 0 105.5 -42.5t37.5 -111.5q0 -101 -70.5 -174t-183.5 -93zM121 123q0 -40 17 -62t47 -22q28 0 52 15q6 29 6 61q0 118 -58 118q-62 0 -64 -110z" />
    <glyph glyph-name="franc" unicode="&#x20a3;" horiz-adv-x="696" 
d="M408 157l-119 7v-78q0 -16 8 -26.5t17.5 -14.5t17.5 -11.5t8 -17.5q0 -16 -20 -16h-182q-9 0 -14.5 5t-5.5 11q0 16 26 31.5t26 38.5v80l-110 -5q-19 -1 -26.5 12t0.5 26t27 12l109 -6v424q0 23 -26 38.5t-26 31.5q0 6 5.5 11t14.5 5h467q51 0 51 -48v-131
q0 -18 -14 -21.5t-23 11.5l-61 95q-27 43 -81 43h-159q-29 0 -29 -29v-228h118q37 0 57 33l39 62q10 17 23 13.5t13 -23.5v-219q0 -22 -12.5 -25.5t-23.5 15.5l-39 61q-18 32 -57 32h-118v-151l120 3q19 0 27 -13t-0.5 -26t-27.5 -12z" />
    <glyph glyph-name="lira" unicode="&#x20a4;" horiz-adv-x="600" 
d="M371 -12q-79 0 -161 67q-17 13 -34 9t-25 -24q-19 -40 -53 -40q-23 0 -38 15.5t-15 40.5q0 66 87 66q80 0 80 144q0 27 -6 51l-116 -5q-23 -1 -28.5 17.5t10.5 28.5q-16 9 -10.5 28t29.5 18l88 -5q-21 59 -21 92q0 71 56.5 118.5t141.5 47.5q78 0 126.5 -32.5t48.5 -92.5
q0 -30 -14.5 -47.5t-38.5 -17.5q-54 0 -54 62q0 48 -14.5 69.5t-50.5 21.5q-94 0 -94 -83q0 -16 3.5 -35.5t7 -31.5t12 -37.5l11.5 -34.5l130 3q24 0 29 -19t-12 -28q17 -10 11.5 -28.5t-29.5 -17.5l-112 6l1 -20q0 -65 -23.5 -103t-77.5 -71q25 9 56.5 -1t69.5 -25.5
t69 -15.5q69 0 69 42q0 10 -14.5 34t-14.5 42q0 20 12.5 33t32.5 13q22 0 36 -17.5t14 -48.5q0 -72 -50.5 -130t-124.5 -58zM168 357l27 -1l-1 2zM310 356v-1h15z" />
    <glyph glyph-name="peseta" unicode="&#x20a7;" horiz-adv-x="730" 
d="M462 461l-171 10v-131q52 -11 91 -11q78 0 124 38t46 117q0 89 -59 135.5t-171 46.5q-31 0 -31 -29v-130l172 5q17 0 24 -13t-0.5 -26t-24.5 -12zM65 466q-19 -1 -26.5 12t0.5 25.5t27 11.5l106 -7v121q0 23 -26 38.5t-26 31.5q0 6 5.5 11t14.5 5h209q165 0 249 -59
t84 -159q0 -101 -76.5 -160t-194.5 -59q-56 0 -120 13v-205q0 -23 26 -38.5t26 -31.5t-20 -16h-183q-9 0 -14.5 5t-5.5 11q0 14 26 30t26 40v386z" />
    <glyph glyph-name="Euro" unicode="&#x20ac;" horiz-adv-x="728" 
d="M450 -12q-114 0 -191.5 75.5t-90.5 204.5l-89 -5q-18 -1 -25.5 12t0.5 26t26 12l86 -6v10q0 26 3 53l-90 -5q-18 -1 -25.5 11.5t0.5 25.5t26 12l95 -7q23 112 98.5 181.5t185.5 69.5q89 0 146.5 -42t57.5 -111q0 -34 -17 -53t-47 -19t-48 21.5t-18 58.5q0 11 1.5 26
t1.5 20q0 49 -79 49q-81 0 -131.5 -55t-58.5 -149l211 6q17 1 24 -12t-0.5 -26t-24.5 -12l-211 11v-1q0 -40 4 -68l208 7q17 1 24 -12t-0.5 -26t-24.5 -12l-201 10q19 -85 72 -130.5t131 -45.5q46 0 81 16.5t56 33t32 16.5q14 0 14 -16q0 -35 -39 -79q-64 -76 -173 -76z" />
    <glyph glyph-name="uni20BA" unicode="&#x20ba;" horiz-adv-x="624" 
d="M416 -12q-77 0 -160 67q-17 13 -33.5 8.5t-25.5 -23.5q-19 -40 -53 -40q-24 0 -39 15.5t-15 40.5q0 57 71 65q17 2 17 19v124l-85 -34q-34 -13 -41 13q-8 24 24 35l102 32v38l-85 -34q-34 -13 -41 13q-8 23 24 35l102 32v105q0 12 -9 20t-19 11t-19 9.5t-9 15.5
q0 13 18 20l112 57q16 9 25.5 3.5t9.5 -21.5v-181l106 40q31 12 39 -15q8 -23 -24 -33l-121 -38v-38l106 40q31 12 39 -14t-24 -34l-121 -38v-107q0 -43 -26 -76q31 11 96 -15.5t100 -26.5q67 0 67 42q0 10 -14 34t-14 42q0 20 13 33t33 13q22 0 35.5 -17.5t13.5 -48.5
q0 -72 -50.5 -130t-124.5 -58z" />
    <glyph glyph-name="uni20BD" unicode="&#x20bd;" horiz-adv-x="683" 
d="M122 0q-20 0 -20 16q0 12 13 20.5t25.5 19.5t12.5 30v65l-65 -1q-31 0 -31 22v4q0 23 32 23l64 -2v36l-65 -1q-31 0 -31 24v4q0 10 9 16.5t23 5.5l64 -3v279q0 15 -8 25t-17.5 14t-17.5 11.5t-8 18.5q0 7 5.5 12t14.5 5h208q150 0 226 -54.5t76 -146.5q0 -99 -75 -154
t-211 -55h-74v-39l132 1q30 0 30 -23v-6q0 -10 -8.5 -16.5t-22.5 -5.5l-131 6v-65q0 -23 26 -38.5t26 -31.5q0 -6 -6 -11t-15 -5h-181zM272 277h63q83 0 125.5 36t42.5 117t-52 123t-151 42q-28 0 -28 -29v-289z" />
    <glyph glyph-name="uni2113" unicode="&#x2113;" horiz-adv-x="555" 
d="M59 141q-7 -5 -13.5 -1.5t-6.5 13.5v8q0 13 13 20l65 32q7 103 43 203t102.5 171t145.5 71q57 0 89 -32.5t32 -84.5q0 -161 -304 -328q-2 -32 -2 -42q0 -104 79 -104q37 0 70 17t55 34t31 17q8 0 10.5 -6t-1.5 -17.5t-15 -24.5q-37 -46 -89.5 -72.5t-103.5 -26.5
q-65 0 -103.5 44t-39.5 136zM232 267q190 127 190 281q0 63 -34 63q-28 0 -54.5 -33.5t-46 -87t-33.5 -110t-22 -113.5z" />
    <glyph glyph-name="trademark" unicode="&#x2122;" horiz-adv-x="1014" 
d="M681 321q-12 0 -21 18l-133 289v-241q0 -18 16 -29.5t16 -19.5q0 -12 -13 -12h-84q-13 0 -13 12q0 8 15.5 20t15.5 29v256q0 21 -15 36.5t-15 22.5q0 13 18 13h102q16 0 23 -14l109 -240l106 240q7 14 21 14h99q18 0 18 -13q0 -7 -15 -22.5t-15 -36.5v-259
q0 -18 13.5 -28.5t13.5 -17.5q0 -12 -14 -12h-113q-16 0 -16 12q0 8 14.5 18.5t14.5 28.5v244l-127 -290q-8 -18 -21 -18zM40 601l11 82q3 20 8.5 26t19.5 6q29 0 72 -2t69 -2q23 0 69.5 2t73.5 2q14 0 19 -6t8 -26l11 -82q2 -12 -8 -15.5t-18 6.5l-30 39q-22 28 -37 35.5
t-43 7.5v-287q0 -18 14 -31t14 -19q0 -11 -13 -11h-118q-13 0 -13 11q0 5 13.5 18.5t13.5 31.5v287q-28 0 -43.5 -8t-37.5 -35l-30 -39q-8 -10 -17.5 -6.5t-7.5 15.5z" />
    <glyph glyph-name="uni2126" unicode="&#x2126;" horiz-adv-x="822" 
d="M92 0q-35 0 -35 35v120q0 14 8 16.5t17 -7.5l69 -84h122q-106 111 -150.5 184t-44.5 161q0 127 96.5 216t236.5 89t237 -89t97 -216q0 -88 -45 -160.5t-152 -184.5h123l69 84q9 10 17 7.5t8 -16.5v-120q0 -35 -35 -35h-257q-12 0 -17 7t1 17q80 139 114.5 228t34.5 176
q0 68 -18.5 123.5t-64.5 94.5t-112 39t-112 -39t-64.5 -94.5t-18.5 -123.5q0 -87 34.5 -176t114.5 -228q5 -10 0.5 -17t-16.5 -7h-257z" />
    <glyph glyph-name="estimated" unicode="&#x212e;" horiz-adv-x="743" 
d="M384 -12q-144 0 -233 94.5t-89 238.5t89.5 240.5t232.5 96.5q134 0 218.5 -81t97.5 -214q2 -20 -9 -31t-30 -11h-451v-222q28 -30 76.5 -47.5t97.5 -17.5q85 0 141.5 30t90.5 98q10 19 30 10l3 -1q18 -9 8 -31q-75 -152 -273 -152zM210 377h342v181q-66 59 -168 59
q-111 0 -174 -59v-181z" />
    <glyph glyph-name="uni2153" unicode="&#x2153;" horiz-adv-x="727" 
d="M80 253q-17 0 -17 12q0 9 22 24t22 32v237l-50 13q-9 2 -11.5 7t0.5 10.5t10 9.5l117 54q11 4 18 0.5t7 -11.5v-320q0 -17 22 -31.5t22 -24.5q0 -12 -17 -12h-145zM114 40l218 300l184 303q11 18 29 18t24 -13.5t-6 -33.5l-218 -302l-184 -301q-11 -18 -28.5 -18
t-23.5 14t5 33zM398 70q0 23 13.5 36t35.5 13q44 0 44 -48q0 -25 8.5 -37.5t32.5 -12.5q28 0 42.5 22t14.5 58q0 37 -18 58.5t-62 27.5q-15 1 -15.5 12t12.5 14q43 12 58.5 31t15.5 55q0 71 -53 71q-20 0 -32.5 -10t-12.5 -22q0 -7 10.5 -21.5t10.5 -28.5q0 -18 -13 -29.5
t-34 -11.5q-26 0 -40 15.5t-14 41.5q0 44 38.5 70t96.5 26q57 0 95 -26t38 -72q0 -70 -83 -90q44 -9 70 -35.5t26 -66.5q0 -55 -43 -89t-115 -34q-62 0 -94.5 24.5t-32.5 58.5z" />
    <glyph glyph-name="uni2154" unicode="&#x2154;" horiz-adv-x="811" 
d="M63 253q-13 0 -16 10.5t9 20.5q95 79 136.5 138.5t41.5 127.5q0 74 -49 74q-43 0 -43 -41q0 -12 8 -28t8 -26q0 -18 -13.5 -31t-36.5 -13q-26 0 -41 16.5t-15 42.5q0 47 40 80t102 33q66 0 103.5 -32.5t37.5 -84.5q0 -50 -43.5 -102.5t-146.5 -125.5h102q27 0 37 19
l25 44q7 10 15 8t8 -12v-104q0 -14 -17 -14h-252zM199 40l218 300l184 303q11 18 29 18t24 -13.5t-6 -33.5l-218 -302l-184 -301q-11 -18 -28.5 -18t-23.5 14t5 33zM481 70q0 23 13.5 36t35.5 13q44 0 44 -48q0 -25 8.5 -37.5t32.5 -12.5q28 0 42.5 22t14.5 58
q0 37 -18 58.5t-62 27.5q-15 1 -15.5 12t12.5 14q43 12 58.5 31t15.5 55q0 71 -53 71q-20 0 -32.5 -10t-12.5 -22q0 -7 10.5 -21.5t10.5 -28.5q0 -18 -13 -29.5t-34 -11.5q-26 0 -40 15.5t-14 41.5q0 44 38.5 70t96.5 26q57 0 95 -26t38 -72q0 -70 -83 -90q44 -9 70 -35.5
t26 -66.5q0 -55 -43 -89t-115 -34q-62 0 -94.5 24.5t-32.5 58.5z" />
    <glyph glyph-name="oneeighth" unicode="&#x215b;" horiz-adv-x="725" 
d="M80 253q-17 0 -17 12q0 9 22 24t22 32v237l-50 13q-9 2 -11.5 7t0.5 10.5t10 9.5l117 54q11 4 18 0.5t7 -11.5v-320q0 -17 22 -31.5t22 -24.5q0 -12 -17 -12h-145zM116 40l218 300l184 303q11 18 29 18t24 -13.5t-6 -33.5l-218 -302l-184 -301q-11 -18 -28.5 -18
t-23.5 14t5 33zM393 88q0 38 24.5 65.5t64.5 34.5q-41 24 -60 48t-19 57q0 49 36.5 79.5t95.5 30.5q58 0 93.5 -26.5t35.5 -69.5q0 -64 -75 -92q50 -29 71 -55t21 -58q0 -52 -38 -83.5t-103 -31.5q-70 0 -108.5 28.5t-38.5 72.5zM469 324q0 -26 20 -45t75 -49q30 25 30 74
q0 31 -16 51t-49 20q-27 0 -43.5 -14t-16.5 -37zM471 91q0 -36 19.5 -56t52.5 -20q30 0 47.5 16t17.5 45q0 26 -22 46.5t-76 50.5q-39 -31 -39 -82z" />
    <glyph glyph-name="threeeighths" unicode="&#x215c;" horiz-adv-x="782" 
d="M155 470q43 12 58.5 31t15.5 55q0 71 -53 71q-20 0 -32.5 -10t-12.5 -22q0 -7 10.5 -21.5t10.5 -28.5q0 -18 -13 -29.5t-34 -11.5q-26 0 -40 15.5t-14 41.5q0 44 38.5 70t96.5 26q57 0 95 -26t38 -72q0 -70 -83 -90q44 -9 70 -35.5t26 -66.5q0 -55 -43 -89t-115 -34
q-62 0 -94.5 24.5t-32.5 58.5q0 23 13.5 36t35.5 13q44 0 44 -48q0 -25 8.5 -37.5t32.5 -12.5q28 0 42.5 22t14.5 58q0 37 -18 58.5t-62 27.5q-15 1 -15.5 12t12.5 14zM175 40l218 300l184 303q11 18 29 18t24 -13.5t-6 -33.5l-218 -302l-184 -301q-11 -18 -28.5 -18
t-23.5 14t5 33zM450 88q0 38 24.5 65.5t64.5 34.5q-41 24 -60 48t-19 57q0 49 36.5 79.5t95.5 30.5q58 0 93.5 -26.5t35.5 -69.5q0 -64 -75 -92q50 -29 71 -55t21 -58q0 -52 -38 -83.5t-103 -31.5q-70 0 -108.5 28.5t-38.5 72.5zM526 324q0 -26 20 -45t75 -49q30 25 30 74
q0 31 -16 51t-49 20q-27 0 -43.5 -14t-16.5 -37zM528 91q0 -36 19.5 -56t52.5 -20q30 0 47.5 16t17.5 45q0 26 -22 46.5t-76 50.5q-39 -31 -39 -82z" />
    <glyph glyph-name="fiveeighths" unicode="&#x215d;" horiz-adv-x="774" 
d="M173 242q-58 0 -92 25.5t-34 63.5q0 20 11.5 34.5t34.5 14.5q27 0 37 -17t8.5 -38t7 -38t31.5 -17q63 0 63 97q0 48 -17 71t-55 23q-25 0 -55.5 -11.5t-39.5 -11.5q-17 0 -15 18l15 167q3 23 26 23h204q16 0 13 -16l-5 -32q-4 -21 -32 -21h-170l-8 -100q45 32 106 32
q117 0 117 -114q0 -67 -40.5 -110t-110.5 -43zM163 40l218 300l184 303q11 18 29 18t24 -13.5t-6 -33.5l-218 -302l-184 -301q-11 -18 -28.5 -18t-23.5 14t5 33zM444 88q0 38 24.5 65.5t64.5 34.5q-41 24 -60 48t-19 57q0 49 36.5 79.5t95.5 30.5q58 0 93.5 -26.5
t35.5 -69.5q0 -64 -75 -92q50 -29 71 -55t21 -58q0 -52 -38 -83.5t-103 -31.5q-70 0 -108.5 28.5t-38.5 72.5zM520 324q0 -26 20 -45t75 -49q30 25 30 74q0 31 -16 51t-49 20q-27 0 -43.5 -14t-16.5 -37zM522 91q0 -36 19.5 -56t52.5 -20q30 0 47.5 16t17.5 45
q0 26 -22 46.5t-76 50.5q-39 -31 -39 -82z" />
    <glyph glyph-name="seveneighths" unicode="&#x215e;" horiz-adv-x="719" 
d="M91 253q-10 0 -13 6.5t2 15.5l188 302h-152q-21 0 -38 -8l-16 -7q-9 -5 -14.5 -0.5t-1.5 14.5l16 56q3 14 17 14h222q11 0 16 -7t0 -17l-140 -353q-6 -16 -24 -16h-62zM94 40l218 300l184 303q11 18 29 18t24 -13.5t-6 -33.5l-218 -302l-184 -301q-11 -18 -28.5 -18
t-23.5 14t5 33zM391 88q0 38 24.5 65.5t64.5 34.5q-41 24 -60 48t-19 57q0 49 36.5 79.5t95.5 30.5q58 0 93.5 -26.5t35.5 -69.5q0 -64 -75 -92q50 -29 71 -55t21 -58q0 -52 -38 -83.5t-103 -31.5q-70 0 -108.5 28.5t-38.5 72.5zM467 324q0 -26 20 -45t75 -49q30 25 30 74
q0 31 -16 51t-49 20q-27 0 -43.5 -14t-16.5 -37zM469 91q0 -36 19.5 -56t52.5 -20q30 0 47.5 16t17.5 45q0 26 -22 46.5t-76 50.5q-39 -31 -39 -82z" />
    <glyph glyph-name="arrowleft" unicode="&#x2190;" horiz-adv-x="847" 
d="M62 270q-22 18 0 35l209 151q17 12 27 4.5t3 -25.5l-42 -130l485 22q30 2 42.5 -18.5t0 -41.5t-42.5 -19l-484 22l41 -130q7 -18 -3 -25.5t-26 4.5z" />
    <glyph glyph-name="arrowup" unicode="&#x2191;" horiz-adv-x="420" 
d="M41 507l151 210q18 22 35 0l151 -209q12 -17 4.5 -27t-25.5 -3l-130 42l22 -485q2 -30 -18.5 -42.5t-41.5 0t-19 42.5l22 484l-130 -41q-18 -7 -25.5 3t4.5 26z" />
    <glyph glyph-name="arrowright" unicode="&#x2192;" horiz-adv-x="847" 
d="M104 249q-30 -2 -42.5 18.5t0 41.5t42.5 19l484 -22l-41 130q-7 18 3 25.5t26 -4.5l210 -151q22 -18 0 -35l-209 -151q-17 -12 -27 -4.5t-3 25.5l42 130z" />
    <glyph glyph-name="arrowdown" unicode="&#x2193;" horiz-adv-x="420" 
d="M357 227q18 7 25.5 -3t-4.5 -27l-151 -209q-17 -22 -35 0l-151 210q-12 16 -4.5 26t25.5 3l130 -41l-22 484q-2 30 19 42.5t41.5 0t18.5 -42.5l-22 -485z" />
    <glyph glyph-name="arrowboth" unicode="&#x2194;" horiz-adv-x="951" 
d="M652 436q-6 18 3.5 25.5t26.5 -5.5l209 -151q11 -7 11 -17t-11 -17l-210 -152q-16 -11 -25.5 -3.5t-3.5 25.5l43 130q-42 -2 -106.5 -7t-112.5 -5q-47 0 -111 5t-108 7l43 -130q6 -18 -3.5 -25.5t-25.5 3.5l-210 152q-11 7 -11 17t11 17l208 151q17 13 27 5.5t4 -25.5
l-43 -131q42 2 83 5.5t70 5.5t66 2t66.5 -2t70 -5.5t82.5 -5.5z" />
    <glyph glyph-name="arrowupdn" unicode="&#x2195;" horiz-adv-x="442" 
d="M73 476q-18 -7 -25 3t5 27l151 209q8 11 17.5 11t16.5 -11l152 -210q11 -16 3.5 -26t-24.5 -3l-131 42q2 -26 7.5 -78t5.5 -84q0 -31 -5.5 -82.5t-7.5 -79.5l131 43q18 6 25 -3.5t-4 -25.5l-152 -210q-8 -10 -17 -10t-17 10l-151 209q-12 17 -5 26.5t25 3.5l130 -43
q-2 28 -5 60t-5 55t-2 47q0 25 2 48t5 54.5t5 59.5z" />
    <glyph glyph-name="uni2196" unicode="&#x2196;" horiz-adv-x="628" 
d="M51 565q-1 13 5.5 20t19.5 5l254 -42q21 -3 22.5 -15.5t-16.5 -20.5l-121 -61l358 -328q23 -20 16.5 -44t-28.5 -28t-44 16l-327 358l-62 -121q-5 -11 -12.5 -14.5t-14.5 1.5t-9 18z" />
    <glyph glyph-name="uni2197" unicode="&#x2197;" horiz-adv-x="627" 
d="M53 121l358 327l-121 62q-11 5 -14.5 12.5t1.5 14.5t18 9l256 41q13 1 20 -5.5t5 -19.5l-42 -254q-3 -21 -15.5 -22.5t-20.5 16.5l-61 121l-328 -358q-20 -23 -44 -16.5t-28 28.5t16 44z" />
    <glyph glyph-name="uni2198" unicode="&#x2198;" horiz-adv-x="626" 
d="M57 491q-23 20 -16.5 44t28.5 28t44 -16l327 -358l62 121q5 11 12.5 14.5t14.5 -1.5t9 -18l41 -256q1 -13 -5.5 -20t-19.5 -5l-254 42q-21 3 -22.5 15.5t16.5 20.5l121 61z" />
    <glyph glyph-name="uni2199" unicode="&#x2199;" horiz-adv-x="626" 
d="M333 102q18 -8 16.5 -20.5t-22.5 -15.5l-254 -42q-13 -2 -20 5t-5 20l41 256q2 13 9 18t14.5 1.5t12.5 -14.5l62 -121l327 358q20 23 44 16.5t28 -28.5t-16 -44l-358 -328z" />
    <glyph glyph-name="partialdiff" unicode="&#x2202;" horiz-adv-x="608" 
d="M225 -12q-85 0 -137.5 56t-52.5 158q0 110 75 183.5t185 73.5q63 0 141 -34v13q0 109 -28 165.5t-100 56.5q-28 0 -60.5 -15t-56 -29.5t-30.5 -14.5q-6 0 -7.5 6t4.5 14q87 106 199 106q87 0 141.5 -67t54.5 -185q0 -206 -94 -346.5t-234 -140.5zM147 153q0 -52 20 -86.5
t61 -34.5q48 0 93 52.5t74 131.5t38 164q-45 21 -85 21q-79 0 -140 -62.5t-61 -185.5z" />
    <glyph glyph-name="emptyset" unicode="&#x2205;" horiz-adv-x="544" 
d="M273 36q-54 0 -102 25l-33 -55q-10 -18 -28 -18.5t-24 14t6 33.5l40 53q-74 64 -74 160q0 88 63 150t152 62q49 0 95 -22l32 52q15 24 39 16q22 -8 16 -30q-2 -7 -8 -15l-38 -50q77 -64 77 -163q0 -88 -62.5 -150t-150.5 -62zM105 247q0 -72 54 -123l104 140l82 135
q-35 16 -72 16q-70 0 -119 -49t-49 -119zM194 99q38 -19 79 -19q69 0 118 49.5t49 117.5q0 77 -58 127l-106 -140z" />
    <glyph glyph-name="uni2206" unicode="&#x2206;" horiz-adv-x="769" 
d="M50 0q-16 0 -22 9t2 25l335 661q7 16 19 16t19 -16l336 -661q7 -16 1.5 -25t-21.5 -9h-669zM87 67h500l-251 496z" />
    <glyph glyph-name="product" unicode="&#x220f;" horiz-adv-x="667" 
d="M88 -128q-21 0 -21 17q0 12 23.5 27t23.5 28v671q0 21 -15.5 36.5t-31.5 27t-16 21.5q0 15 22 15h521q22 0 22 -15q0 -10 -16 -21.5t-31.5 -27t-15.5 -36.5v-671q0 -12 23.5 -27t23.5 -28q0 -17 -22 -17h-163q-21 0 -21 17q0 12 23.5 26.5t23.5 28.5v730h-215v-730
q0 -13 23.5 -28t23.5 -27q0 -17 -21 -17h-164z" />
    <glyph glyph-name="summation" unicode="&#x2211;" horiz-adv-x="704" 
d="M52 -128q-17 0 -22.5 10t4.5 24l286 383l-243 391q-9 16 -3.5 25.5t22.5 9.5h535v-161q0 -17 -9.5 -21t-20.5 11l-78 98q-26 32 -68 32h-233l177 -280q28 -41 -3 -82l-250 -337h324q40 0 70 30l62 67q11 13 20.5 9t9.5 -21v-188h-580z" />
    <glyph glyph-name="minus" unicode="&#x2212;" horiz-adv-x="514" 
d="M82 272q-15 0 -21.5 11.5t0 23t21.5 11.5h350q15 0 21.5 -11.5t0 -23t-21.5 -11.5h-350z" />
    <glyph glyph-name="uni2215" unicode="&#x2215;" horiz-adv-x="517" 
d="M18 -66q-7 -11 -18 -11t-14.5 8.5t2.5 19.5l512 759q12 17 27 8q14 -8 4 -23z" />
    <glyph glyph-name="uni2219" unicode="&#x2219;" horiz-adv-x="364" 
d="M182 348q-32 0 -54 22t-22 54t22 54.5t54 22.5t54.5 -22.5t22.5 -54.5t-22.5 -54t-54.5 -22z" />
    <glyph glyph-name="radical" unicode="&#x221a;" horiz-adv-x="742" 
d="M314 -4l-155 276l-126 -8q-13 -1 -18 8t0.5 18t17.5 9h206q28 0 40 -23l94 -172l329 598q8 15 23 15.5t20.5 -11t-3.5 -29.5l-400 -681q-5 -11 -13.5 -11t-14.5 11z" />
    <glyph glyph-name="infinity" unicode="&#x221e;" horiz-adv-x="826" 
d="M600 105q-57 0 -102.5 23t-102.5 81q-48 -53 -88.5 -78t-87.5 -25q-70 0 -114.5 44t-44.5 115q0 69 48 116.5t120 47.5q56 0 103 -24t104 -83q50 57 89.5 81.5t89.5 24.5q67 0 109.5 -44.5t42.5 -113.5t-49.5 -117t-116.5 -48zM110 265q0 -45 28.5 -71t77.5 -26
q77 0 149 72q-60 63 -94 85t-72 22q-39 0 -64 -22.5t-25 -59.5zM466 290q56 -60 86 -82t67 -22q43 0 68 22t25 61q0 45 -27.5 71t-73.5 26q-72 0 -145 -76z" />
    <glyph glyph-name="integral" unicode="&#x222b;" horiz-adv-x="446" 
d="M85 -154q-45 0 -68 20t-23 47q0 21 14.5 36t39.5 15q21 0 35.5 -10t21.5 -21.5t17.5 -21.5t23.5 -10q35 0 35 49v652q0 97 51 147.5t124 50.5q46 0 70.5 -19t24.5 -48q0 -21 -14.5 -36t-39.5 -15q-21 0 -36 10t-21.5 21.5t-17 21.5t-23.5 10q-35 0 -35 -48v-652
q0 -98 -52.5 -148.5t-126.5 -50.5z" />
    </font>
</defs>
</svg>
