<?xml version="1.0" standalone="no"?>
<!DOCTYPE svg PUBLIC "-//W3C//DTD SVG 1.1//EN" "http://www.w3.org/Graphics/SVG/1.1/DTD/svg11.dtd" >
<svg xmlns="http://www.w3.org/2000/svg" xmlns:xlink="http://www.w3.org/1999/xlink" version="1.1">
<metadata>
Created by FontForge 20190801 at Sat May 28 22:37:58 1927
 By Jimmy Wärting
(c) 1992 Fonts Collection.
</metadata>
<defs>
<font id="Century-Normal" horiz-adv-x="500" >
  <font-face 
    font-family="Century"
    font-weight="400"
    font-stretch="normal"
    units-per-em="1000"
    panose-1="0 0 0 0 0 0 0 0 0 0"
    ascent="800"
    descent="-200"
    x-height="489"
    cap-height="732"
    bbox="-83 -196 1064 915"
    underline-thickness="20"
    underline-position="-143"
    unicode-range="U+0020-2122"
  />
<missing-glyph horiz-adv-x="813" 
d="M50 0v813h713v-813h-713zM713 50v713h-613v-713h613z" />
    <glyph glyph-name=".notdef" horiz-adv-x="813" 
d="M50 0v813h713v-813h-713zM713 50v713h-613v-713h613z" />
    <glyph glyph-name=".null" horiz-adv-x="0" 
 />
    <glyph glyph-name="nonmarkingreturn" horiz-adv-x="250" 
 />
    <glyph glyph-name="space" unicode=" " horiz-adv-x="250" 
 />
    <glyph glyph-name="exclam" unicode="!" horiz-adv-x="263" 
d="M135 -11q-24 0 -43 18t-19 44t18 45t44 19t45 -19t19 -46q0 -25 -19 -43t-45 -18zM121 200q0 147 -16 285q-2 16 -7 45q-13 76 -15 89t-3 20q-4 26 -4 36q0 29 16.5 48.5t44.5 19.5t44.5 -19.5t16.5 -48.5q0 -12 -1 -19t-6 -38t-12 -69.5t-10 -63.5q-8 -66 -12 -142.5
t-4 -142.5h-32z" />
    <glyph glyph-name="quotedbl" unicode="&#x22;" horiz-adv-x="396" 
d="M61 636q-1 8 -1.5 16t-0.5 23q0 31 8.5 49.5t33.5 18.5q26 0 36 -21.5t10 -53.5v-21q-2 -8 -2 -11l-30 -268l-4 -30q-4 -11 -13 -11q-11 0 -14 16q-2 20 -2 25zM250 636q-1 8 -1.5 16t-0.5 23q0 31 8.5 49.5t33.5 18.5q26 0 36 -21.5t10 -53.5v-21q-2 -8 -2 -11l-30 -268
l-4 -30q-4 -11 -13 -11q-11 0 -14 16q-2 20 -2 25z" />
    <glyph glyph-name="numbersign" unicode="#" 
d="M465 237h-113l-32 -237h-61l32 237h-109l-32 -237h-62l32 237h-113v58h121l20 149h-109v58h117l30 223h62l-30 -223h109l30 223h61l-30 -223h106v-58h-114l-20 -149h105v-58zM210 444l-20 -149h109l20 149h-109z" />
    <glyph glyph-name="dollar" unicode="$" 
d="M261 -128h-46v117q-71 0 -130.5 50t-59.5 120q0 30 14.5 50t42.5 20q23 0 37 -15t14 -39q0 -15 -7 -31q-17 -40 -17 -50q0 -35 42 -55q35 -17 74 -17q65 0 114 34q56 39 56 101q0 41 -26 73q-31 38 -111 70q-104 42 -149 78q-73 58 -73 145q0 77 51 134t128 68v106h46
v-106q70 -7 121 -46q58 -45 58 -111q0 -26 -13.5 -41.5t-37.5 -15.5q-21 0 -36.5 15.5t-15.5 36.5q0 9 4 29t4 30q0 35 -30.5 52.5t-68.5 17.5q-60 0 -105.5 -36t-45.5 -96q0 -80 95 -127q89 -40 178 -79q96 -59 96 -164q0 -82 -61 -139q-57 -53 -142 -62v-117z" />
    <glyph glyph-name="percent" unicode="%" horiz-adv-x="579" 
d="M505 714l-379 -714h-52l379 714h52zM437 -11q-64 0 -104 66q-33 55 -33 117q0 64 32 118q40 67 105 67q62 0 101 -64q33 -55 33 -117q0 -63 -32 -119q-39 -68 -102 -68zM436 330q-43 0 -59 -63q-9 -34 -9 -91q0 -63 8 -96q16 -64 62 -64q37 0 54 64q11 43 11 90
q0 62 -8 95q-16 65 -59 65zM148 357q-63 0 -103 66q-33 55 -33 117q0 64 32 118q39 67 104 67q63 0 102 -64q33 -54 33 -117q0 -64 -32 -119q-39 -68 -103 -68zM148 698q-43 0 -59 -63q-9 -34 -9 -91q0 -63 8 -96q16 -64 62 -64q37 0 54 64q11 43 11 90q0 62 -8 95
q-16 65 -59 65z" />
    <glyph glyph-name="ampersand" unicode="&#x26;" horiz-adv-x="790" 
d="M452 601q0 44 -25 76.5t-69 32.5q-40 0 -64 -30t-24 -71q0 -34 13.5 -76t32.5 -77q81 35 110 71q26 32 26 74zM137 235q0 -80 57.5 -141.5t136.5 -61.5q33 0 64.5 9.5t53.5 29.5q-56 68 -109 151q-48 75 -94 164q-48 -18 -78.5 -58.5t-30.5 -92.5zM232 416q-19 40 -30 71
q-14 41 -14 76q0 80 51 130t131 50q60 0 108 -34.5t48 -91.5q0 -63 -69 -117q-34 -27 -125 -73q28 -51 58.5 -103.5t61.5 -98.5t70 -92q33 46 52 96.5t19 102.5q0 40 -25.5 53.5t-69.5 13.5v29h258v-29q-54 0 -75 -21q-13 -13 -35 -70q-29 -74 -43 -103q-25 -52 -59 -96
q16 -21 47 -38.5t56 -17.5q35 0 73 22q10 6 39 26l16 -19q-38 -41 -82 -65q-50 -28 -99 -28q-38 0 -68 16q-20 10 -57 42q-48 -28 -96 -43t-99 -15q-93 0 -163 49q-79 55 -79 144q0 67 51 124q35 39 109 87z" />
    <glyph glyph-name="quotesingle" unicode="'" horiz-adv-x="211" 
d="M63 636q-1 20 -1 33q0 33 8.5 53.5t33.5 20.5t37 -25q9 -19 9 -51v-17q-2 -10 -2 -14l-31 -268l-2 -24q-4 -17 -15 -17q-10 0 -13 16q-2 20 -3 25z" />
    <glyph glyph-name="parenleft" unicode="(" horiz-adv-x="395" 
d="M410 740q-101 -68 -146 -198q-36 -104 -36 -249q0 -133 40 -238q46 -122 142 -190l-20 -28q-123 78 -190 197.5t-67 264.5q0 303 257 468z" />
    <glyph glyph-name="parenright" unicode=")" horiz-adv-x="395" 
d="M-8 -135q96 68 142 190q40 105 40 238q0 144 -36 248q-45 130 -146 199l21 27q257 -166 257 -468q0 -145 -66.5 -264t-190.5 -198z" />
    <glyph glyph-name="asterisk" unicode="*" 
d="M224 670q0 28 8.5 41.5t23.5 13.5q17 0 25 -18t8 -37q0 -28 -3 -47.5t-11 -60.5q66 33 81 39q30 12 46 12q13 0 24 -6.5t11 -19.5q0 -31 -61 -47q-70 -12 -87 -15q59 -61 67 -72q22 -29 22 -47q0 -14 -5.5 -22t-19.5 -8q-33 0 -70 70q-20 43 -26 55q-20 -38 -40 -75
q-30 -50 -58 -50q-25 0 -25 28q0 29 50 80q20 20 40 41l-88 14q-62 16 -62 48q0 13 11.5 19.5t25.5 6.5q21 0 63 -19q19 -8 63 -32q-9 50 -9 53q-4 29 -4 55z" />
    <glyph glyph-name="plus" unicode="+" 
d="M220 299v201h58v-201h192v-58h-192v-201h-58v201h-191v58h191z" />
    <glyph glyph-name="comma" unicode="," horiz-adv-x="250" 
d="M53 -141q32 30 47 48q27 33 27 56q0 13 -9 20q-4 3 -13 8q-22 10 -33 24.5t-11 37.5q0 26 18 44t44 18q36 0 55 -28t19 -66q0 -53 -43 -104q-34 -41 -89 -75z" />
    <glyph glyph-name="hyphen" unicode="-" horiz-adv-x="237" 
d="M225 293v-73h-225v73h225z" />
    <glyph glyph-name="period" unicode="." horiz-adv-x="250" 
d="M124 115q26 0 45 -19t19 -46q0 -25 -19 -43t-45 -18q-24 0 -43 18t-19 44t18 45t44 19z" />
    <glyph glyph-name="slash" unicode="/" horiz-adv-x="527" 
d="M497 767l-398 -866h-70l401 866h67z" />
    <glyph glyph-name="zero" unicode="0" 
d="M426 598q27 -50 40.5 -111t13.5 -123q0 -59 -11.5 -118.5t-34.5 -109.5q-30 -63 -69 -100q-50 -47 -109 -47q-58 0 -104 41q-37 33 -68 94q-27 53 -39.5 111t-12.5 122q0 63 11.5 120t36.5 109q31 59 70 95q49 44 106 44q53 0 100 -39q38 -32 70 -88zM256 692
q-60 0 -93 -85q-36 -92 -36 -253q0 -119 20 -199q33 -133 115 -133q67 0 100 129q23 91 23 209q0 113 -20 196q-33 136 -109 136z" />
    <glyph glyph-name="one" unicode="1" 
d="M312 725v-543v-55q3 -43 20.5 -63t52.5 -27q21 -4 59 -4v-33h-356v33h13q30 0 54.5 3.5t37.5 15.5q21 17 26 48t5 82v282v12q0 35 -2.5 60t-11.5 41.5t-37.5 22.5t-90.5 6v33q58 0 109 20q57 23 90 66h31z" />
    <glyph glyph-name="two" unicode="2" 
d="M34 0l-6 46q27 50 61 97q23 31 73 89q34 40 77 86q72 77 99 133q23 48 23 97q0 57 -35 100.5t-91 43.5q-39 0 -69.5 -21t-30.5 -58q0 -15 18 -51q9 -18 9 -32q0 -22 -15.5 -37.5t-37.5 -15.5q-29 0 -45.5 21.5t-16.5 52.5q0 75 63 124.5t140 49.5q83 0 145 -49
q67 -53 67 -134q0 -69 -48 -132q-32 -42 -104 -100q-85 -66 -118.5 -103t-93.5 -129h98h23q48 0 77 2.5t52.5 11t43.5 33.5t39 70l29 -8l-44 -187h-382z" />
    <glyph glyph-name="three" unicode="3" 
d="M269 385l2 -3q79 -11 132 -59q59 -53 59 -131q0 -90 -75 -149q-69 -54 -162 -54q-73 0 -126 28q-68 36 -68 104q0 27 13 46.5t39 19.5t40.5 -16.5t14.5 -42.5q0 -7 -2.5 -22t-2.5 -19q0 -32 31 -50q26 -15 61 -15q68 0 103 59q29 49 29 122q0 60 -24 104q-30 55 -85 55
q-14 0 -26 -2q-40 -7 -43 -7q-15 0 -25 7t-10 21q0 29 38 29q11 0 31 -4t29 -4q42 0 69 52q22 43 22 90q0 57 -24 98q-29 50 -82 50q-33 0 -59.5 -18t-26.5 -48q0 -8 2 -27.5t2 -20.5q0 -22 -14 -38t-37 -16q-24 0 -40 17t-16 41q0 67 67 108q58 35 128 35q80 0 138 -45
q63 -49 63 -127q0 -60 -52 -109q-47 -44 -111 -61z" />
    <glyph glyph-name="four" unicode="4" 
d="M322 725h44v-501h111v-46h-111v-25q0 -33 1.5 -53t7 -35.5t21.5 -23.5t48 -8v-33h-253v33q38 0 56 6.5t23.5 21.5t6.5 44.5t1 38.5v34h-253v46zM74 224h204v347z" />
    <glyph glyph-name="five" unicode="5" 
d="M128 411q34 25 68 37t74 12q89 0 147 -69q55 -66 55 -156q0 -100 -69 -173t-168 -73q-66 0 -124 37q-67 42 -67 104q0 28 14 48.5t41 20.5q23 0 38 -16t15 -39q0 -7 -3.5 -26.5t-3.5 -29.5q0 -31 23 -48.5t56 -17.5q76 0 118 71q35 59 35 140q0 74 -33 125
q-38 59 -109 59q-39 0 -70 -18.5t-53 -51.5l-34 15l22 352h334l-15 -71h-275z" />
    <glyph glyph-name="six" unicode="6" 
d="M307 449q78 0 130 -65q49 -61 49 -140q0 -98 -60 -174q-64 -81 -159 -81q-105 0 -168 96q-58 89 -58 227q0 71 13.5 133.5t43.5 121.5q35 70 86 111q59 47 131 47q48 0 92 -26q52 -31 52 -74q0 -24 -16 -40t-41 -16q-34 0 -49.5 61.5t-62.5 61.5q-77 0 -122 -139
q-34 -105 -34 -206q41 47 75 70q48 32 98 32zM136 269q0 -95 21 -155q32 -92 108 -92q68 0 101 75q25 57 25 135q0 73 -30 121t-86 48q-39 0 -81 -38q-34 -31 -58 -74v-20z" />
    <glyph glyph-name="seven" unicode="7" 
d="M468 714l6 -56q-62 -98 -103 -176q-55 -104 -82 -191q-33 -105 -33 -201v-16q0 -40 -7 -57q-12 -28 -46 -28q-28 0 -40 16.5t-12 45.5q0 58 28 140q25 72 70 162q21 41 59 107q22 39 112 188h-159h-20t-20 1q-33 0 -54 -5t-41.5 -23t-35 -46t-23.5 -60l-29 7l41 192h389z
" />
    <glyph glyph-name="eight" unicode="8" 
d="M381 561q0 56 -31 92q-34 39 -88 39q-53 0 -87.5 -36.5t-34.5 -90.5q0 -48 56 -92q41 -32 100 -55q41 26 63 61.5t22 81.5zM121 181q0 -65 40 -112t104 -47q61 0 101.5 43.5t40.5 105.5q0 51 -37 89q-7 7 -141 88q-49 -25 -78.5 -69.5t-29.5 -97.5zM481 202
q0 -40 -18 -80t-47.5 -70t-74.5 -46.5t-92 -16.5q-86 0 -148 50q-68 55 -68 139q0 62 54 114q44 42 112 70q-58 28 -90 65q-38 44 -38 101q0 86 56.5 141.5t142.5 55.5q70 0 125 -44q60 -48 60 -116q0 -53 -39 -96q-26 -28 -85 -67q66 -32 105 -79q45 -55 45 -121z" />
    <glyph glyph-name="nine" unicode="9" 
d="M248 692q-69 0 -101 -72q-24 -54 -24 -134q0 -69 24 -114q31 -58 93 -58q41 0 81 39q26 25 57 74q0 108 -18 166q-31 99 -112 99zM473 397q0 -64 -15.5 -132.5t-43.5 -123.5q-34 -66 -85 -106q-59 -46 -126 -46q-49 0 -93 25q-53 30 -53 76q0 25 15.5 39.5t40.5 14.5
q21 0 31 -12t15.5 -41t15.5 -45q15 -24 46 -24q72 0 119 124q39 103 39 202q0 15 -1 21q-40 -50 -75 -73q-45 -30 -99 -30q-79 0 -127.5 63t-48.5 144q0 95 60 171q64 81 157 81q118 0 179 -110q49 -89 49 -218z" />
    <glyph glyph-name="colon" unicode=":" horiz-adv-x="250" 
d="M124 374q-24 0 -43 18t-19 44t18 45t44 19t45 -19t19 -46q0 -25 -19 -43t-45 -18zM124 -11q-24 0 -43 18t-19 44t18 45t44 19t45 -19t19 -46q0 -25 -19 -43t-45 -18z" />
    <glyph glyph-name="semicolon" unicode=";" horiz-adv-x="250" 
d="M53 -136q32 31 47 49q27 33 27 55q0 13 -9 20q-4 3 -13 8q-22 10 -33 24.5t-11 37.5q0 26 18 44t44 18q36 0 55 -28t19 -66q0 -52 -43 -104q-34 -41 -89 -75zM126 374q-24 0 -43 18t-19 44t18 45t44 19t45 -19t19 -46q0 -25 -19 -43t-45 -18z" />
    <glyph glyph-name="less" unicode="&#x3c;" 
d="M92 270l373 -176v-54l-430 205v50l430 205v-54z" />
    <glyph glyph-name="equal" unicode="=" 
d="M460 367v-58h-421v58h421zM460 231v-58h-421v58h421z" />
    <glyph glyph-name="greater" unicode="&#x3e;" 
d="M408 270l-373 176v54l430 -205v-50l-430 -205v54z" />
    <glyph glyph-name="question" unicode="?" horiz-adv-x="395" 
d="M159 200h-42v215h31q65 0 101.5 38.5t36.5 103.5q0 44 -16 80q-21 48 -59 48q-31 0 -57 -36t-55 -36q-22 0 -37 13t-15 37q0 38 39 61q33 19 75 19q84 0 141.5 -64t57.5 -149q0 -89 -55.5 -141.5t-145.5 -52.5v-136zM143 -11q-24 0 -43 18t-19 44t18 45t44 19t45 -19
t19 -46q0 -25 -19 -43t-45 -18z" />
    <glyph glyph-name="at" unicode="@" horiz-adv-x="851" 
d="M515 452q5 11 6.5 17t1.5 17q0 30 -15 51.5t-43 21.5q-70 0 -127 -130q-49 -111 -49 -194q0 -27 16 -44t42 -17q43 0 77 46q24 33 42 87zM559 575h83l-94 -279q-12 -41 -18.5 -65t-6.5 -32q0 -21 25 -21q32 0 67 22q14 9 33 27q41 37 63 91.5t22 113.5q0 113 -87 190.5
t-201 77.5q-135 0 -230.5 -95.5t-95.5 -232.5q0 -142 92.5 -240.5t231.5 -98.5q85 0 162.5 46.5t117.5 122.5h44q-37 -97 -128.5 -155t-197.5 -58q-154 0 -260 111t-106 268q0 154 106.5 264.5t257.5 110.5q139 0 238 -87.5t99 -227.5q0 -106 -63 -186q-33 -41 -81.5 -69.5
t-96.5 -28.5q-28 0 -53 15t-29 43q-23 -24 -56 -40.5t-65 -16.5q-55 0 -87.5 41.5t-32.5 98.5q0 108 61 200q68 103 170 103q36 0 64 -14.5t36 -45.5z" />
    <glyph glyph-name="A" unicode="A" horiz-adv-x="658" 
d="M383 757l182 -544q9 -29 19 -57q26 -71 47 -94q11 -13 28 -20t37 -9v-33h-294v33q30 2 61 4q36 8 36 41q0 11 -5.5 29.5t-11.5 34.5l-41 123h-255l-13 -38q-15 -44 -30 -87q-10 -34 -10 -49q0 -34 31 -48q22 -10 63 -10v-33h-256v33q57 0 91 50q21 30 45 103l182 546z
M315 647l-113 -336h225z" />
    <glyph glyph-name="B" unicode="B" horiz-adv-x="685" 
d="M282 403q98 0 147 27q66 36 66 126q0 72 -56 110q-49 33 -125 33q-55 0 -72.5 -23t-17.5 -80v-193h58zM224 133q0 -55 19.5 -77.5t75.5 -22.5q91 0 144 34q64 41 64 127q0 102 -77 144q-59 32 -171 32h-55v-237zM33 0v33q58 0 75 26t17 111v392q0 85 -16.5 111t-75.5 26
v33h217q157 0 221 -18q129 -36 129 -151q0 -86 -66 -130q-50 -33 -147 -47q97 -3 169 -46q86 -52 86 -142q0 -105 -98 -157q-78 -41 -193 -41h-318z" />
    <glyph glyph-name="C" unicode="C" horiz-adv-x="685" 
d="M644 552l-25 -12q-48 63 -107 107q-74 55 -138 55q-113 0 -169 -106q-44 -83 -44 -207q0 -126 58 -223q69 -116 187 -116q75 0 135 47q50 39 94 113l21 -12q-43 -94 -114 -149q-78 -60 -174 -60q-143 0 -235 105q-87 100 -87 245q0 69 20.5 134t61.5 127t98 100
q64 43 136 43q23 0 43 -4.5t37 -10.5t27 -9q22 -7 40 -7t31.5 4.5t36.5 16.5z" />
    <glyph glyph-name="D" unicode="D" horiz-adv-x="764" 
d="M32 0v33q60 0 77 26t17 111v392q0 84 -17.5 110.5t-76.5 26.5v33h274q82 0 128 -10q72 -15 138.5 -62.5t99.5 -121t33 -161.5q0 -179 -111 -280q-107 -97 -288 -97h-274zM225 169q0 -83 18 -109.5t79 -26.5q141 0 210 103q58 87 58 237t-57 231q-67 95 -211 95
q-63 0 -80 -23t-17 -104v-403z" />
    <glyph glyph-name="E" unicode="E" horiz-adv-x="658" 
d="M459 236h-29q0 85 -52 112q-32 17 -112 17h-41v-231q0 -64 17 -82.5t85 -18.5q134 0 198 58q26 24 94 109l24 -10l-74 -190h-536v33q59 0 76 26t17 111v392q0 85 -17 111t-76 26v33h523l70 -171l-25 -15q-71 94 -112 120q-53 33 -156 33q-74 0 -91 -19t-17 -95v-187h41
q81 0 118 22q47 28 47 103h28v-287z" />
    <glyph glyph-name="F" unicode="F" horiz-adv-x="606" 
d="M225 170q0 -85 20 -111t90 -26v-33h-303v33q60 0 77 26t17 111v392q0 84 -17.5 110.5t-76.5 26.5v33h528l66 -173l-24 -16q-70 95 -115 122q-56 34 -167 34q-64 0 -79.5 -27t-15.5 -108v-170h41q81 0 118 22q47 28 47 103h28v-287h-29q0 85 -52 112q-32 17 -112 17h-41
v-191z" />
    <glyph glyph-name="G" unicode="G" horiz-adv-x="737" 
d="M648 560l-29 -13q-44 70 -94 111q-64 52 -135 52q-117 0 -178 -133q-47 -102 -47 -237q0 -116 56 -209q66 -109 176 -109q81 0 116 49q30 42 30 127q0 62 -22.5 79t-88.5 17v33h285v-33q-58 0 -75 -36q-11 -23 -11 -92v-148q-8 2 -21 5t-21 3q-32 0 -75 -11
q-101 -26 -138 -26q-152 0 -242 106q-84 99 -84 254q0 150 83 266q92 128 237 128q30 0 58 -5q73 -13 77 -13q18 0 31.5 3.5t44.5 19.5z" />
    <glyph glyph-name="H" unicode="H" horiz-adv-x="764" 
d="M536 399v163q0 85 -16.5 111t-75.5 26v33h286v-33q-60 0 -77.5 -26.5t-17.5 -110.5v-392q0 -86 17 -111.5t78 -25.5v-33h-286v33q58 0 75 26t17 111v183h-311v-183q0 -86 17 -111.5t76 -25.5v-33h-285v33q59 0 76 26t17 111v392q0 85 -17 111t-76 26v33h285v-33
q-58 0 -75.5 -26.5t-17.5 -110.5v-163h311z" />
    <glyph glyph-name="I" unicode="I" horiz-adv-x="342" 
d="M225 170q0 -84 17.5 -110.5t77.5 -26.5v-33h-288v33q60 0 77 26t17 111v392q0 84 -17.5 110.5t-76.5 26.5v33h288v-33q-60 0 -77.5 -26.5t-17.5 -110.5v-392z" />
    <glyph glyph-name="J" unicode="J" horiz-adv-x="395" 
d="M166 562q0 85 -17.5 111t-82.5 26v33h295v-33q-61 0 -78.5 -26.5t-17.5 -110.5v-409q0 -65 -6 -100q-9 -52 -36 -91q-31 -42 -79 -68.5t-98 -26.5q-35 0 -60 18q-29 21 -29 54q0 27 17 44t44 17q36 0 59 -40t42 -40q16 0 26 10.5t13.5 27.5t5.5 48t2 53v33v470z" />
    <glyph glyph-name="K" unicode="K" horiz-adv-x="711" 
d="M457 580q29 29 35 36q23 27 23 43q0 26 -28 35q-16 5 -51 5v33h278v-33q-63 0 -129 -51q-28 -22 -104 -100l-90 -91l194 -296q43 -66 63 -86q41 -42 92 -42h11v-33h-308v33h26q28 0 42.5 5t14.5 23q0 11 -5.5 21.5t-28.5 42.5l-172 260l-93 -95v-120q0 -85 16.5 -111
t76.5 -26v-33h-287v33q61 0 78 26t17 111v392q0 86 -17 111.5t-78 25.5v33h287v-33q-58 0 -75.5 -26.5t-17.5 -110.5v-214z" />
    <glyph glyph-name="L" unicode="L" horiz-adv-x="579" 
d="M621 184l-69 -184h-518v33q61 0 78 26t17 111v392q0 86 -17 111.5t-78 25.5v33h290v-33q-61 0 -78.5 -26.5t-17.5 -110.5v-412q0 -71 16 -91q20 -26 91 -26q97 0 155 39q51 34 104 124z" />
    <glyph glyph-name="M" unicode="M" horiz-adv-x="948" 
d="M811 170q0 -84 17.5 -110.5t77.5 -26.5v-33h-289v33q61 0 78 25.5t17 111.5v484l-251 -654h-38l-246 658l-3 -488q0 -85 16.5 -111t76.5 -26v-33h-233v33q60 0 77 26t17 111v392q0 85 -17 111t-77 26v33h216l219 -582l220 582h217v-33q-60 0 -77.5 -26.5t-17.5 -110.5
v-392z" />
    <glyph glyph-name="N" unicode="N" horiz-adv-x="764" 
d="M594 187v375q0 85 -16.5 111t-76.5 26v33h232v-33q-58 0 -75.5 -26.5t-17.5 -110.5v-562h-34l-433 609v-439q0 -86 17 -111.5t77 -25.5l-1 -33h-233v33q60 0 77 26t17 111v392q0 84 -17.5 110.5t-76.5 26.5v33h174z" />
    <glyph glyph-name="O" unicode="O" horiz-adv-x="764" 
d="M374 -11q-148 0 -239 117q-84 108 -84 260t85 260q92 117 241 117q148 0 240 -120q84 -110 84 -263q0 -152 -86 -258q-92 -113 -241 -113zM166 370q0 -125 42 -220q56 -128 166 -128q115 0 170 123q42 93 42 223q0 127 -42 219q-56 123 -167 123q-112 0 -168 -121
q-43 -92 -43 -219z" />
    <glyph glyph-name="P" unicode="P" horiz-adv-x="606" 
d="M228 170q0 -86 17 -111.5t77 -25.5v-33h-288v33q61 0 78 26t17 111v392q0 86 -17 111.5t-78 25.5v33h347q95 0 156 -46q69 -52 69 -144q0 -110 -91 -159q-72 -39 -200 -39h-87v-174zM228 377h38q113 0 165 30q70 40 70 141q0 77 -49 116q-44 35 -125 35q-66 0 -85 -30
q-14 -22 -14 -93v-199z" />
    <glyph glyph-name="Q" unicode="Q" horiz-adv-x="764" 
d="M723 -67q-31 -24 -64 -39.5t-67 -15.5q-48 0 -83 39q-29 32 -46 84q-19 -6 -43 -9t-46 -3q-143 0 -236 114q-87 107 -87 254q0 155 82 265q90 121 241 121q150 0 242 -117q85 -108 85 -262q0 -105 -37 -185.5t-118 -140.5q11 -34 44.5 -66.5t65.5 -32.5q13 0 25 3.5
t28 11.5zM586 360q0 133 -41 225q-55 125 -171 125q-112 0 -167 -126q-41 -94 -41 -224q0 -65 11 -124.5t38 -107.5q6 39 36 59.5t71 20.5q54 0 106 -36q46 -32 79 -84q41 44 62 128q17 69 17 144zM322 175q-29 0 -51.5 -17t-22.5 -46q0 -41 42 -67q37 -23 80 -23
q24 0 41.5 3.5t36.5 12.5q-15 57 -41 91q-35 46 -85 46z" />
    <glyph glyph-name="R" unicode="R" horiz-adv-x="632" 
d="M225 357v-187q0 -86 17 -111.5t76 -25.5v-33h-285v33q59 0 76 26t17 111v390q0 80 -9 100q-17 39 -84 39v33h294q108 0 177 -37q90 -48 90 -146q0 -73 -58 -125q-54 -48 -130 -58l134 -239q29 -50 35 -58q28 -36 92 -36v-33h-166l-205 357h-71zM225 390h52q86 0 144 36
q68 43 68 123q0 70 -55 112q-50 38 -123 38q-58 0 -74 -26q-12 -19 -12 -83v-200z" />
    <glyph glyph-name="S" unicode="S" horiz-adv-x="553" 
d="M510 557l-29 -14q-45 72 -93 113q-64 54 -132 54q-57 0 -95 -38t-38 -95q0 -58 54 -96q36 -25 108 -47q90 -28 122 -42q64 -28 95 -67q38 -48 38 -123q0 -94 -64.5 -153.5t-159.5 -59.5q-29 0 -67 9q-84 20 -90 20q-15 0 -32 -8.5t-29 -20.5l-73 195l30 14
q57 -75 111 -118q74 -58 144 -58q61 0 104.5 37t43.5 98q0 95 -106 142q-98 36 -196 73q-107 55 -107 167q0 93 58.5 148.5t153.5 55.5q24 0 37 -3t43 -14l25.5 -8.5t28.5 -3.5q14 0 27 4.5t22 14.5z" />
    <glyph glyph-name="T" unicode="T" horiz-adv-x="632" 
d="M369 170q0 -85 18.5 -111t86.5 -26v-33h-308v33q67 0 85.5 25.5t18.5 111.5v418v20.5t1 21.5q0 33 -9 48q-13 21 -47 21q-73 0 -136 -49q-56 -44 -92 -114l-27 11l72 185h577l70 -185l-25 -11q-35 70 -93 114q-65 49 -137 49q-34 0 -47 -21q-9 -15 -9 -49v-20.5t1 -20.5
v-418z" />
    <glyph glyph-name="U" unicode="U" horiz-adv-x="737" 
d="M582 562q0 84 -16.5 110.5t-73.5 26.5v33h229v-33q-58 0 -75.5 -26.5t-17.5 -110.5v-309q0 -134 -63 -199t-196 -65q-116 0 -183 59q-70 62 -70 176v338q0 85 -15.5 111t-72.5 26v33h283v-33q-61 0 -78.5 -26.5t-17.5 -110.5v-281q0 -118 32 -175q43 -76 151 -76
q112 0 154 79q30 57 30 180v273z" />
    <glyph glyph-name="V" unicode="V" horiz-adv-x="658" 
d="M319 0l-206 594q-12 38 -20 55q-11 25 -27 35t-33.5 12.5t-43.5 2.5h-11v33h305v-33q-51 0 -67 -9t-16 -32q0 -15 9 -44q4 -12 15 -43l140 -408l126 359q12 32 21 64q13 45 13 65q0 36 -42 43q-21 2 -42 5v33h249v-33q-28 0 -42.5 -3t-34 -18.5t-41.5 -66.5
q-13 -30 -29 -79l-190 -532h-33z" />
    <glyph glyph-name="W" unicode="W" horiz-adv-x="948" 
d="M306 0h-32l-158 560q-21 75 -39 99q-31 40 -99 40v33h286v-33q-34 0 -47 -4q-27 -8 -27 -33q0 -14 4 -29t12 -39l114 -407l124 423q-10 41 -30 63q-24 26 -62 26h-9v33h287v-33q-44 0 -56 -3q-32 -8 -32 -38q0 -10 1 -16q5 -19 6 -27l120 -428l103 352q12 41 18 69t6 42
q0 33 -32 43q-2 1 -54 6v33h260v-33q-74 0 -109 -52q-17 -25 -45 -116l-162 -531h-32l-156 542z" />
    <glyph glyph-name="X" unicode="X" horiz-adv-x="632" 
d="M505 144q39 -68 74 -91q30 -20 71 -20v-33h-294v33q35 0 47 3q28 7 28 31q0 15 -20 50q-13 21 -16 27l-102 171l-68 -105l-40 -64q-28 -48 -28 -70q0 -26 26 -36q18 -7 49 -7v-33h-254v33q60 0 94 28q23 19 61 83l134 212l-133 222q-46 81 -77 101t-79 20v33h296v-33
q-19 -1 -44.5 -2.5t-25.5 -24.5q0 -18 15 -46q19 -32 26 -44l80 -133l81 127q12 20 25 41q18 32 18 45q0 24 -26 31q-34 4 -46 6v33h246v-33q-44 0 -75 -17.5t-78 -89.5l-119 -185z" />
    <glyph glyph-name="Y" unicode="Y" horiz-adv-x="632" 
d="M466 567q11 18 24 45.5t13 43.5q0 35 -42 40q-30 2 -42 3v33h248v-33q-54 0 -90 -38q-18 -19 -53 -84l-143 -262v-145q0 -86 17 -111.5t78 -25.5v-33h-290v33q62 0 79 25.5t17 111.5v112l-161 285q-37 67 -54 87q-38 45 -89 45v33h292v-33q-43 0 -53 -2q-34 -7 -34 -33
q0 -10 12.5 -34.5t16.5 -31.5l141 -242z" />
    <glyph glyph-name="Z" unicode="Z" horiz-adv-x="579" 
d="M573 183l-72 -183h-497l444 699h-62q-120 0 -180 -28q-71 -33 -130 -129l-30 13l65 177h470l-441 -699h127q89 0 159.5 42.5t113.5 120.5z" />
    <glyph glyph-name="bracketleft" unicode="[" horiz-adv-x="395" 
d="M225 -80h102v-40h-185v887h185v-39h-102v-808z" />
    <glyph glyph-name="backslash" unicode="\" horiz-adv-x="250" 
d="M-83 739h72l343 -739h-70z" />
    <glyph glyph-name="bracketright" unicode="]" horiz-adv-x="395" 
d="M76 728v39h185v-887h-185v40h102v808h-102z" />
    <glyph glyph-name="asciicircum" unicode="^" 
d="M255 675l-186 -373h-54l215 430h47l208 -430h-54z" />
    <glyph glyph-name="underscore" unicode="_" 
d="M500 -62v-76h-500v76h500z" />
    <glyph glyph-name="grave" unicode="`" horiz-adv-x="289" 
d="M207 548l-17 -9l-43 62q-23 29 -42 57q-31 46 -31 60q0 12 10.5 18.5t23.5 6.5q28 0 40 -26q8 -22 12 -32z" />
    <glyph glyph-name="a" unicode="a" horiz-adv-x="474" 
d="M310 262q-65 -11 -117 -45q-64 -42 -64 -98q0 -34 20.5 -55.5t52.5 -21.5q26 0 57 17.5t51 39.5v163zM310 361q0 46 -12 71q-17 35 -58 35q-34 0 -53.5 -20.5t-28 -51.5t-20 -42.5t-38.5 -11.5q-47 0 -47 44q0 56 66 88q55 27 116 27q36 0 70 -8t57.5 -27.5t29.5 -46.5
t6 -67v-228q0 -40 7 -54t23 -14q12 0 20.5 6t20.5 19l13 -21q-29 -43 -55 -58q-20 -12 -47 -12q-30 0 -47.5 19t-20.5 51q-41 -33 -74 -49q-43 -21 -86 -21q-52 0 -85 33t-33 86q0 87 99 136q55 27 177 51v66z" />
    <glyph glyph-name="b" unicode="b" horiz-adv-x="553" 
d="M181 92q36 -29 45 -34q27 -16 55 -16q67 0 105 75q30 60 30 136q0 71 -32 127q-39 67 -106 67q-27 0 -54 -17q-21 -13 -43 -37v-301zM104 -5h-12v598q0 62 -14 75t-71 13v29l173 57v-333q28 28 66 47t74 19q87 0 142 -80q49 -72 49 -163q0 -97 -52 -177q-59 -91 -152 -91
q-38 0 -74 22q-30 18 -60 52z" />
    <glyph glyph-name="c" unicode="c" horiz-adv-x="474" 
d="M463 119q-38 -58 -89 -92q-57 -38 -122 -38q-95 0 -159.5 73.5t-64.5 169.5q0 114 70.5 191t184.5 77q53 0 103 -26q61 -32 61 -79q0 -21 -15.5 -35.5t-38.5 -14.5q-34 0 -62 61t-79 61q-69 0 -100 -77q-23 -56 -23 -136q0 -81 40 -142q46 -70 124 -70q46 0 87 28
q27 18 68 63z" />
    <glyph glyph-name="d" unicode="d" horiz-adv-x="553" 
d="M372 394q-23 25 -50 42q-33 21 -61 21q-65 0 -99 -78q-26 -60 -26 -135q0 -77 25 -135q33 -77 100 -77q28 0 61 20q25 16 50 42v300zM372 593q0 62 -14 75t-71 13v29l173 57v-630q0 -72 9 -87t59 -21v-29h-156v57q-30 -30 -65 -49t-72 -19q-93 0 -147 83q-47 72 -47 170
q0 131 67 202q53 56 120 56q40 0 78 -19q29 -14 66 -46v158z" />
    <glyph glyph-name="e" unicode="e" 
d="M133 275q0 -94 30 -158q40 -85 124 -85q49 0 91.5 24.5t72.5 66.5l17 -16q-33 -54 -83.5 -86t-110.5 -32q-103 0 -172.5 73.5t-69.5 177.5q0 101 62 178q66 82 167 82q91 0 151 -67t60 -158h-339zM371 313q1 12 1 18q0 54 -26 92q-30 44 -86 44q-59 0 -93 -51
q-29 -44 -29 -103h233z" />
    <glyph glyph-name="f" unicode="f" horiz-adv-x="289" 
d="M306 489v-33h-119v-319q0 -72 8.5 -87t58.5 -21h36v-29h-286v29h28q49 6 58 21t9 87v319h-95v33h95q0 43 6.5 80t23.5 67q22 43 62 73q44 34 88 34q26 0 47 -14t21 -39q0 -19 -13.5 -31.5t-33.5 -12.5q-16 0 -38.5 18.5t-38.5 18.5q-28 0 -34 -39q-2 -13 -2 -37v-118h119
z" />
    <glyph glyph-name="g" unicode="g" horiz-adv-x="553" 
d="M210 17q-50 -16 -72 -29q-42 -25 -42 -60q0 -33 42.5 -52t128.5 -19q54 0 92 10q59 16 59 53q0 24 -26 40q-13 8 -47 19zM307 71q98 -25 118 -34q68 -31 68 -90q0 -73 -87 -103q-57 -20 -150 -20q-88 0 -148 15q-100 25 -100 85q0 36 34 60q15 10 117 45q-32 11 -63 23
q-41 20 -41 48t31 49q24 16 58 24q-40 23 -62.5 63.5t-22.5 88.5q0 78 60.5 126.5t140.5 48.5q38 0 73 -11.5t61 -36.5q23 23 46 36q30 17 57 17q23 0 37 -15t14 -39q0 -19 -11.5 -33.5t-29.5 -14.5q-17 0 -46 26q-16 14 -30 14q-8 0 -19 -9q19 -18 29.5 -51.5t10.5 -63.5
q0 -76 -62 -127q-58 -48 -134 -48q-24 0 -44 3.5t-39 11.5q-13 -5 -18 -8q-11 -7 -11 -17q0 -20 49 -35q29 -8 35 -9zM258 467q-51 0 -80 -51q-24 -43 -24 -98q0 -57 24 -95q29 -46 82 -46q51 0 76 45q21 38 21 93q0 53 -22 97q-28 55 -77 55z" />
    <glyph glyph-name="h" unicode="h" horiz-adv-x="579" 
d="M184 137q0 -72 9 -87t59 -21v-29h-223v29q49 6 58 21t9 87v456q0 62 -14 75t-71 13v29l173 57v-345q35 32 84 55t93 23q73 0 102 -51q24 -42 24 -129v-183q0 -72 8.5 -87t58.5 -21v-29h-222v29q49 6 58 21t9 87v183q0 61 -15 90q-19 37 -66 37q-28 0 -58.5 -13.5
t-75.5 -53.5v-243z" />
    <glyph glyph-name="i" unicode="i" horiz-adv-x="263" 
d="M178 137q0 -72 9 -87t59 -21v-29h-224v30q49 6 58.5 21.5t9.5 86.5v214q0 34 -4 46q-9 26 -61 26v24l153 59v-370zM121 610q-27 0 -47 19t-20 47q0 27 19 47t47 20t47.5 -19.5t19.5 -47.5q0 -27 -19.5 -46.5t-46.5 -19.5z" />
    <glyph glyph-name="j" unicode="j" horiz-adv-x="237" 
d="M24 448l152 59v-436v-43q0 -44 -5 -78.5t-19 -56.5q-19 -33 -55.5 -56.5t-74.5 -23.5q-29 0 -49 14q-24 17 -24 46q0 21 16.5 36.5t37.5 15.5q29 0 46 -43q8 -21 20 -21q11 0 15.5 10.5t4.5 25.5q-1 15 -1 20v435q0 34 -4 46q-9 26 -60 26v24zM115 610q-27 0 -47 19
t-20 47t18.5 47.5t46.5 19.5t48 -19t20 -48q0 -26 -20 -46t-46 -20z" />
    <glyph glyph-name="k" unicode="k" horiz-adv-x="553" 
d="M304 357q21 21 28 30q17 22 17 38q0 35 -51 35v29h233v-29q-45 0 -81 -23q-16 -10 -65 -56l-78 -74l142 -204q26 -37 43 -52q26 -22 63 -22v-29h-239v29q25 0 39.5 6t14.5 23q0 11 -12 31q-15 23 -19 30l-93 131l-66 -62v-51q0 -72 9 -87t60 -21v-29h-225v29q50 6 59 21
t9 87v456q0 62 -14 75t-71 13v29l173 57v-535z" />
    <glyph glyph-name="l" unicode="l" horiz-adv-x="263" 
d="M96 593q0 62 -14 75t-71 13v29l173 57v-630q0 -72 9 -87t60 -21v-29h-224v29q49 6 58 21t9 87v456z" />
    <glyph glyph-name="m" unicode="m" horiz-adv-x="843" 
d="M178 137q0 -72 9 -87t59 -21v-29h-224v29q50 6 59 21t9 87v215q0 34 -4 46q-9 26 -61 26v24l153 59v-99q31 40 75 66t91 26q42 0 73 -25t46 -67q47 46 76 64q45 28 95 28q35 0 62.5 -13t43.5 -40.5t19 -57t3 -82.5v-170q0 -72 8.5 -87t58.5 -21v-29h-223v29q50 6 59 21
t9 87v179q0 62 -8 85q-16 46 -65 46q-36 0 -73 -23q-28 -17 -58 -50v-237q0 -72 9 -87t59 -21v-29h-223v29q49 6 58 21t9 87v179q0 58 -10 85q-17 46 -66 46q-35 0 -72 -23q-30 -19 -56 -50v-237z" />
    <glyph glyph-name="n" unicode="n" horiz-adv-x="553" 
d="M178 137q0 -72 8.5 -87t58.5 -21v-29h-223v29q50 6 59 21t9 87v215q0 34 -4 46q-9 26 -61 26v24l153 59v-85q30 32 73.5 55t83.5 23q56 0 95 -39q22 -24 28 -55t6 -75v-194q0 -72 8.5 -87t58.5 -21v-29h-224v29q51 6 60 21t9 87v175q0 63 -11 90q-19 45 -72 45
q-31 0 -63 -21q-20 -13 -52 -45v-244z" />
    <glyph glyph-name="o" unicode="o" horiz-adv-x="527" 
d="M37 236q0 105 60 181q65 83 167 83q99 0 163 -84q59 -77 59 -179q0 -99 -65.5 -173.5t-162.5 -74.5q-93 0 -157 75.5t-64 171.5zM385 256q0 77 -23 133q-32 78 -98 78q-68 0 -101 -75q-25 -57 -25 -134q0 -79 23 -144q33 -92 97 -92q68 0 102 88q25 65 25 146z" />
    <glyph glyph-name="p" unicode="p" horiz-adv-x="527" 
d="M170 90q29 -27 48 -39q30 -19 59 -19q73 0 106 79q24 57 24 143q0 80 -26 133q-34 70 -106 70q-24 0 -55 -19t-50 -41v-307zM170 -38q0 -72 9 -87t58 -22v-29h-223v29q50 7 59 22t9 87v390q0 43 -10 56q-13 16 -56 16v24l154 59v-71q35 30 65 45q38 19 77 19
q88 0 142 -80q48 -71 48 -163q0 -105 -48 -180q-56 -88 -156 -88q-36 0 -68 16t-60 45v-88z" />
    <glyph glyph-name="q" unicode="q" horiz-adv-x="553" 
d="M459 521h10v-559q0 -74 9 -88.5t61 -20.5v-29h-229v29q52 7 61.5 22.5t9.5 87.5v91q-33 -30 -69 -47.5t-75 -17.5q-92 0 -149 84q-51 75 -51 172t53 171q60 84 152 84q38 0 74 -17.5t65 -47.5zM381 92v306q-23 21 -51.5 35t-55.5 14q-72 0 -110 -66q-32 -55 -32 -132
q0 -83 26 -140q35 -77 108 -77q24 0 47 10.5t63 45.5z" />
    <glyph glyph-name="r" unicode="r" horiz-adv-x="395" 
d="M175 137q0 -72 8.5 -87t58.5 -21v-29h-221v29q49 6 57.5 20.5t8.5 87.5v215q0 34 -4 46q-9 26 -61 26v24l153 59v-118q41 50 71 76q50 42 93 42q25 0 43.5 -16.5t18.5 -41.5t-14.5 -40.5t-39.5 -15.5q-17 0 -50 17q-18 9 -30 9q-23 0 -52 -26q-24 -22 -40 -48v-208z" />
    <glyph glyph-name="s" unicode="s" horiz-adv-x="448" 
d="M406 344l-24 -13q-50 64 -83 92q-52 44 -107 44q-31 0 -55 -19t-24 -49q0 -48 81 -80q75 -29 151 -57q82 -44 82 -122q0 -63 -50 -107t-113 -44q-18 0 -34 4q-21 7 -31 10t-19.5 6t-18.5 3q-15 0 -30 -6t-28 -17l-62 170l22 11q32 -53 89 -97q66 -51 118 -51
q35 0 61.5 23.5t26.5 58.5q0 52 -80 83q-75 26 -150 53q-81 41 -81 118q0 61 47.5 101.5t109.5 40.5q18 0 52 -8t47 -8q25 0 45 23z" />
    <glyph glyph-name="t" unicode="t" horiz-adv-x="309" 
d="M9 456v24q53 22 87 73.5t41 110.5h33v-175h140v-33h-140v-303q0 -55 5 -72q11 -39 52 -39q26 0 49 15q12 8 39 35l17 -20q-33 -37 -66 -58q-40 -25 -83 -25q-59 0 -83 45q-18 34 -18 98v324h-73z" />
    <glyph glyph-name="u" unicode="u" horiz-adv-x="553" 
d="M370 71q-38 -38 -71 -57q-43 -25 -87 -25q-33 0 -62 13t-46 39t-21 55.5t-4 77.5v178q0 34 -4 46q-9 26 -61 26v24l153 59v-359q0 -45 19.5 -75.5t62.5 -30.5q37 0 80 35q19 16 40 36v239q0 34 -4 46q-9 26 -61 26v24l153 59v-370q0 -72 9 -87t60 -21v-29h-156v71z" />
    <glyph glyph-name="v" unicode="v" horiz-adv-x="474" 
d="M336 341q6 17 13 37t7 32q0 26 -18.5 38t-47.5 12v29h198v-29q-17 0 -25.5 -1.5t-19.5 -11t-26 -43.5q-7 -16 -20 -50l-141 -354h-48l-151 383q-20 47 -23 52q-17 25 -48 25v29h222v-29q-26 0 -45 -7.5t-19 -30.5q0 -12 8 -35q3 -8 7 -19l95 -244z" />
    <glyph glyph-name="w" unicode="w" horiz-adv-x="711" 
d="M241 0h-26l-132 360q-20 54 -29 68q-22 32 -63 32v29h204v-29q-18 0 -31.5 -7t-13.5 -22q0 -8 2 -16t7 -21l87 -252l92 247q-13 37 -32 54t-54 17v29h213v-29q-23 0 -39 -4.5t-16 -21.5q0 -8 2.5 -18t7.5 -23l86 -244l91 244q3 11 3 20q0 21 -10.5 30.5t-26 13t-36.5 3.5
v29h198v-29q-38 0 -63 -36q-14 -20 -32 -70l-127 -354h-30l-112 318z" />
    <glyph glyph-name="x" unicode="x" horiz-adv-x="527" 
d="M401 129q35 -46 55 -64q39 -36 75 -36v-29h-232v29q21 0 29 2q19 5 19 20q0 9 -14 26.5l-18 22.5l-76 94l-55 -71l-21 -27q-14 -19 -14 -31q0 -22 20.5 -29t46.5 -7v-29h-220v29q43 5 84 43q16 15 64 74l67 85l-121 152q-34 42 -42 49q-30 28 -56 28v29h239v-29
q-31 0 -45.5 -3.5t-14.5 -22.5q0 -13 15 -34l24 -30l56 -70l50 65q11 14 23.5 32t12.5 31q0 21 -16 26.5t-42 5.5v29h211v-29q-47 0 -84 -37q-12 -12 -38 -45l-89 -116z" />
    <glyph glyph-name="y" unicode="y" 
d="M347 343q9 23 13 36q8 26 8 39q0 25 -22 33.5t-52 8.5v29h213v-29q-15 0 -28.5 -2.5t-22.5 -10.5q-19 -14 -39 -55q-9 -19 -27 -67l-144 -358q-27 -72 -52 -104q-39 -50 -99 -50q-30 0 -54 18t-24 48q0 23 15 37t38 14q22 0 43.5 -19.5t31.5 -19.5q25 0 46 47l26 70
l-143 361q-27 65 -38 75q-17 16 -50 16v29h226v-29q-25 0 -42.5 -5.5t-17.5 -23.5q0 -11 3.5 -22.5t9.5 -25.5l97 -258z" />
    <glyph glyph-name="z" unicode="z" horiz-adv-x="448" 
d="M381 0h-377l325 460h-39q-81 0 -131 -32t-87 -105l-27 14l58 152h349l-324 -460h41q91 0 144 33t95 116l31 -13z" />
    <glyph glyph-name="braceleft" unicode="{" horiz-adv-x="395" 
d="M238 19q0 -48 19.5 -75t70.5 -40h-13q-91 0 -122 33t-31 116v167q0 51 -18 75.5t-73 34.5q55 16 73 41t18 77v167q0 85 33.5 118.5t132.5 33.5q-52 -15 -71 -42t-19 -76v-188q0 -57 -18 -84q-22 -33 -82 -45q61 -11 83 -49q17 -29 17 -91v-173z" />
    <glyph glyph-name="bar" unicode="|" horiz-adv-x="250" 
d="M90 767h71v-767h-71v767z" />
    <glyph glyph-name="braceright" unicode="}" horiz-adv-x="395" 
d="M152 649q0 48 -18 73q-21 29 -72 42h13q91 0 122 -33t31 -116v-167q0 -51 18.5 -76t72.5 -34q-55 -16 -73 -41t-18 -77v-168q0 -84 -33.5 -117.5t-132.5 -33.5q52 15 71 41.5t19 75.5v188q0 58 18 85q22 33 82 45q-61 10 -83 47q-17 29 -17 92v174z" />
    <glyph glyph-name="asciitilde" unicode="~" 
d="M467 305q-30 -52 -47 -70q-30 -32 -69 -32q-19 0 -41 8q-7 3 -39 18l-38 18q-29 14 -37 17q-23 9 -41 9q-34 0 -60 -36q-6 -9 -26 -43l-36 31q30 54 50 75q32 32 74 32q20 0 49 -11q16 -6 52 -23q27 -15 51.5 -24.5t40.5 -9.5q27 0 47 21q16 16 32 50z" />
    <glyph glyph-name="quotesinglbase" unicode="&#x201a;" horiz-adv-x="210" 
d="M38 -141l3 3q28 25 44 46q26 33 26 55q0 9 -3 14.5t-21.5 14.5t-29.5 23.5t-11 37.5q0 26 18 44t44 18q35 0 54 -28.5t19 -65.5q0 -53 -42 -104q-34 -40 -89 -75z" />
    <glyph glyph-name="quotedblbase" unicode="&#x201e;" horiz-adv-x="395" 
d="M38 -141q32 30 47 48q27 33 27 56q0 13 -9 20q-4 3 -13 8q-22 10 -33 24.5t-11 37.5q0 26 18 44t44 18q36 0 55 -28t19 -66q0 -53 -43 -104q-34 -41 -89 -75zM221 -141q32 30 47 48q27 33 27 56q0 13 -9 20q-4 3 -13 8q-22 10 -33 24.5t-11 37.5q0 26 18 44t44 18
q36 0 55 -28.5t19 -65.5q0 -53 -43 -104q-34 -41 -89 -75z" />
    <glyph glyph-name="ellipsis" unicode="&#x2026;" horiz-adv-x="1000" 
d="M165 -11q-24 0 -43 18t-19 44t18 45t44 19t45 -19t19 -46q0 -25 -19 -43t-45 -18zM498 -11q-24 0 -43 18t-19 44t18 45t44 19t45 -19t19 -46q0 -25 -19 -43t-45 -18zM831 -11q-24 0 -43 18t-19 44t18 45t44 19t45 -19t19 -46q0 -25 -19 -43t-45 -18z" />
    <glyph glyph-name="dagger" unicode="&#x2020;" 
d="M233 -187v333q0 53 -8.5 97t-30.5 86q20 23 29.5 56t9.5 74q-36 0 -67.5 -10.5l-64.5 -21.5q-21 0 -36.5 14.5t-15.5 35.5q0 20 16 35t36 15q13 0 36 -10q51 -22 96 -22q0 28 -6.5 58t-17 57.5t-12.5 34.5q-7 23 -7 34q0 25 17.5 44.5t42.5 19.5q26 0 43 -19t17 -45
q0 -10 -3.5 -24t-15.5 -42q-13 -35 -19 -61t-6 -57q36 0 67.5 10.5l64.5 21.5q22 0 37.5 -14.5t15.5 -35.5t-15.5 -35.5t-37.5 -14.5q-13 0 -36 10q-51 22 -96 22q0 -41 9.5 -73.5t30.5 -56.5q-21 -41 -30.5 -86.5t-9.5 -96.5v-333h-33z" />
    <glyph glyph-name="daggerdbl" unicode="&#x2021;" 
d="M402 456q-7 0 -76 21q-32 10 -49 8q-2 -18 -2 -29q0 -28 7 -51.5t25 -43.5q-20 -31 -28.5 -70.5t-8.5 -82.5q33 0 63.5 9.5t63.5 19.5q19 0 33 -13t14 -33q0 -19 -14 -32t-32 -13q-7 0 -76 21q-32 10 -49 8q0 -31 7.5 -57t25.5 -49q-16 -34 -24.5 -79.5t-8.5 -131.5v-45
h-33v45q0 85 -8.5 130t-24.5 81q33 45 33 106q-20 2 -49 -7q-72 -22 -78 -22q-18 0 -32 13t-14 32q0 20 14 33t34 13q3 0 63 -19q31 -10 63 -10q0 46 -7.5 82.5t-29.5 70.5q17 19 24.5 44.5t7.5 54.5v16q-1 6 -1 9q-21 2 -66 -13.5t-58 -15.5q-18 0 -32 13t-14 32
q0 20 13 33t34 13q4 0 63 -19q31 -10 62 -10q0 62 -29 122q-6 14 -8 21q-5 13 -5 22q0 26 17 43t44 17q26 0 43 -17t17 -43q0 -11 -4.5 -22t-8.5 -21q-13 -29 -21 -61t-8 -61q33 0 63.5 9.5t63.5 19.5q19 0 33 -13t14 -33q0 -19 -14 -32t-32 -13z" />
    <glyph glyph-name="perthousand" unicode="&#x2030;" horiz-adv-x="922" 
d="M529 714l-379 -714h-52l378 714h53zM451 -11q-63 0 -103 66q-33 55 -33 117q0 64 32 118q39 67 104 67q63 0 102 -64q33 -54 33 -117q0 -64 -32 -119q-39 -68 -103 -68zM451 330q-43 0 -59 -63q-9 -34 -9 -91q0 -63 8 -96q16 -64 62 -64q37 0 54 64q11 43 11 90
q0 62 -8 95q-16 65 -59 65zM760 -11q-63 0 -103 66q-33 55 -33 117q0 64 32 118q39 67 104 67q63 0 102 -64q33 -54 33 -117q0 -64 -32 -119q-39 -68 -103 -68zM760 330q-43 0 -59 -63q-9 -34 -9 -91q0 -63 8 -96q16 -64 62 -64q37 0 54 64q11 43 11 90q0 62 -8 95
q-16 65 -59 65zM146 357q-63 0 -103 66q-33 55 -33 117q0 64 32 118q39 67 104 67q63 0 102 -64q33 -54 33 -117q0 -64 -32 -119q-39 -68 -103 -68zM146 698q-43 0 -59 -63q-9 -34 -9 -91q0 -63 8 -96q16 -64 62 -64q37 0 54 64q11 43 11 90q0 62 -8 95q-16 65 -59 65z" />
    <glyph glyph-name="guilsinglleft" unicode="&#x2039;" horiz-adv-x="289" 
d="M257 412l-112 -159l112 -153l-13 -14l-201 167l201 174z" />
    <glyph glyph-name="quoteleft" unicode="&#x2018;" horiz-adv-x="210" 
d="M182 726q-32 -29 -47 -48q-27 -33 -27 -56q0 -13 9 -20q4 -3 13 -8q22 -10 33 -24.5t11 -37.5q0 -26 -18 -44t-44 -18q-36 0 -55 28t-19 66q0 53 43 104q34 41 89 75z" />
    <glyph glyph-name="quoteright" unicode="&#x2019;" horiz-adv-x="210" 
d="M38 488q32 29 47 48q27 33 27 56q0 10 -5 16t-17 11q-22 10 -33 24.5t-11 37.5q0 26 18 44t44 18q35 0 56 -30q18 -26 18 -63q0 -53 -43 -105q-32 -39 -89 -75z" />
    <glyph glyph-name="quotedblleft" unicode="&#x201c;" horiz-adv-x="395" 
d="M365 726q-32 -29 -47 -48q-27 -33 -27 -56q0 -9 3.5 -14.5t22 -14.5t29.5 -23.5t11 -37.5q0 -26 -18 -44t-44 -18q-36 0 -55 28t-19 66q0 53 43 104q34 40 89 75zM182 726q-32 -29 -47 -48q-27 -33 -27 -56q0 -13 9 -20q4 -3 13 -8q22 -10 33 -24.5t11 -37.5
q0 -26 -18 -44t-44 -18q-36 0 -55 28t-19 66q0 53 43 104q34 41 89 75z" />
    <glyph glyph-name="quotedblright" unicode="&#x201d;" horiz-adv-x="395" 
d="M38 488q32 29 47 48q27 33 27 56q0 10 -5 16t-17 11q-22 10 -33 24.5t-11 37.5q0 26 18 44t44 18q35 0 56 -30q18 -26 18 -63q0 -53 -43 -105q-32 -39 -89 -75zM221 488q32 29 47 48q27 33 27 56q0 10 -5 16t-17 11q-22 10 -33 24.5t-11 37.5q0 26 18 44t44 18
q36 0 55 -28.5t19 -64.5q0 -53 -43 -105q-32 -39 -89 -75z" />
    <glyph glyph-name="bullet" unicode="&#x2022;" horiz-adv-x="658" 
d="M329 549q75 0 129 -54t54 -129t-54 -129t-129 -54t-129 54t-54 129t54 129t129 54z" />
    <glyph glyph-name="endash" unicode="&#x2013;" 
d="M500 293v-73h-500v73h500z" />
    <glyph glyph-name="emdash" unicode="&#x2014;" horiz-adv-x="1000" 
d="M1000 293v-73h-1000v73h1000z" />
    <glyph glyph-name="trademark" unicode="&#x2122;" horiz-adv-x="787" 
d="M304 720v-84h-22q0 39 -15.5 48.5t-57.5 9.5h-19v-260q0 -15 12.5 -20.5t34.5 -5.5v-20h-156v20q21 0 26 1q21 5 21 25v260h-19q-42 0 -57.5 -9.5t-15.5 -48.5h-22v84h290zM551 487l86 233h123v-20h-11q-15 0 -20 -3.5t-5 -12.5v-236q0 -26 7 -33t35 -7v-20h-145v20
q27 0 34 7t7 33v233h-7l-115 -291h-7l-117 291h-7v-247q0 -15 12.5 -20.5t34.5 -5.5v-20h-126v20q22 0 27 1q22 5 22 25v253q0 10 -7 11.5t-27 1.5v20h112z" />
    <glyph glyph-name="guilsinglright" unicode="&#x203a;" horiz-adv-x="289" 
d="M257 253l-200 -167l-14 14l112 153l-112 159l14 15z" />
    <glyph glyph-name="nonbreakingspace" unicode="&#xa0;" 
 />
    <glyph glyph-name="sterling" unicode="&#xa3;" horiz-adv-x="395" 
d="M166 562q0 85 -17.5 111t-82.5 26v33h295v-33q-61 0 -78.5 -26.5t-17.5 -110.5v-409q0 -65 -6 -100q-9 -52 -36 -91q-31 -42 -79 -68.5t-98 -26.5q-35 0 -60 18q-29 21 -29 54q0 27 17 44t44 17q36 0 59 -40t42 -40q16 0 26 10.5t13.5 27.5t5.5 48t2 53v33v470z" />
    <glyph glyph-name="currency" unicode="&#xa4;" 
d="M67 219q-53 63 -53 143q0 85 53 147l-54 52l29 29l53 -52q63 52 146 52q40 0 78 -13t68 -39l52 52l29 -29l-52 -52q52 -65 52 -147t-52 -143l52 -54l-29 -28l-52 53q-65 -54 -148 -54q-39 0 -75 13.5t-69 40.5l-53 -53l-29 28zM67 363q0 -70 51 -122t122 -52
q72 0 123.5 49.5t51.5 122.5t-50.5 124.5t-123.5 51.5q-72 0 -123 -51t-51 -123z" />
    <glyph glyph-name="brokenbar" unicode="&#xa6;" horiz-adv-x="250" 
d="M90 767h71v-306h-71v306zM90 306h71v-306h-71v306z" />
    <glyph glyph-name="section" unicode="&#xa7;" 
d="M455 -13q0 -76 -66 -127q-61 -47 -141 -47q-44 0 -79.5 12.5t-64.5 42.5q-21 22 -34 48t-13 54q0 29 15 50.5t43 21.5q20 0 35 -16t15 -37q0 -6 -2.5 -13.5l-4.5 -13.5q-6 -17 -8 -25t-2 -21q0 -37 34 -57q29 -17 68 -17q56 0 94 28q43 32 43 85q0 66 -84 122l-156 94
q-85 61 -85 137q0 51 28 85q22 27 73 56q-34 28 -52.5 62t-18.5 75q0 73 57 117q52 40 126 40q61 0 114 -35q60 -39 60 -97q0 -26 -14 -45t-40 -19q-20 0 -33 14t-13 35q0 7 7 30q4 13 4 20q0 36 -26 52t-65 16q-47 0 -81 -25.5t-34 -71.5q0 -57 78 -110l146 -92
q78 -60 78 -134q0 -44 -24 -81q-20 -31 -60 -60q37 -28 60 -68t23 -85zM343 158q25 27 31 37q13 21 13 46q0 58 -80 112q-63 40 -125 81q-23 -15 -39 -37q-19 -26 -19 -49q0 -47 65 -97q26 -20 106 -65z" />
    <glyph glyph-name="dieresis" unicode="&#xa8;" horiz-adv-x="658" 
d="M459 236h-29q0 85 -52 112q-32 17 -112 17h-41v-231q0 -64 17 -82.5t85 -18.5q134 0 198 58q26 24 94 109l24 -10l-74 -190h-536v33q59 0 76 26t17 111v392q0 85 -17 111t-76 26v33h523l70 -171l-25 -15q-71 94 -112 120q-53 33 -156 33q-74 0 -91 -19t-17 -95v-187h41
q81 0 118 22q47 28 47 103h28v-287zM225 803q-23 0 -39 16t-16 39q0 24 15.5 40.5t38.5 16.5q24 0 40 -17t16 -41q0 -22 -16 -38t-39 -16zM447 803q-23 0 -39 16t-16 39q0 24 15.5 40.5t38.5 16.5q24 0 40 -17t16 -41q0 -22 -16 -38t-39 -16z" />
    <glyph glyph-name="copyright" unicode="&#xa9;" horiz-adv-x="798" 
d="M27 366q0 156 107 266.5t262 110.5q157 0 266.5 -109.5t109.5 -267.5t-110.5 -267.5t-266.5 -109.5q-151 0 -259.5 111.5t-108.5 265.5zM732 366q0 142 -98 240t-238 98q-135 0 -232.5 -100.5t-97.5 -237.5q0 -140 98.5 -238.5t237.5 -98.5q135 0 232.5 99.5t97.5 237.5z
M561 448h-33q0 53 -31.5 84.5t-84.5 31.5q-73 0 -114 -58q-36 -52 -36 -129q0 -80 38 -135q44 -64 120 -64q47 0 86 29q14 10 22 21q1 1 17 28l28 -8q-20 -51 -75 -82q-50 -28 -108 -28q-97 0 -156 64t-59 164q0 103 62.5 167.5t165.5 64.5q41 0 77 -7.5t81 -23.5v-119z" />
    <glyph glyph-name="guillemotleft" unicode="&#xab;" horiz-adv-x="474" 
d="M432 412l-112 -159l112 -153l-13 -14l-200 167l200 174zM257 412l-112 -159l112 -153l-13 -14l-201 167l201 174z" />
    <glyph glyph-name="logicalnot" unicode="&#xac;" 
d="M460 87h-58v223h-363v58h421v-281z" />
    <glyph glyph-name="minus" unicode="&#xad;" horiz-adv-x="474" 
d="M394 664v-68h-320v68h320z" />
    <glyph glyph-name="registered" unicode="&#xae;" horiz-adv-x="798" 
d="M26 365q0 157 107 267.5t262 110.5t266 -109t111 -265q0 -158 -110 -269t-267 -111q-151 0 -260 111t-109 265zM732 366q0 141 -96.5 239.5t-236.5 98.5t-237 -99t-97 -239q0 -138 96.5 -237.5t233.5 -99.5q140 0 238.5 97.5t98.5 239.5zM342 242v-15q0 -18 4 -30.5
t16 -12.5h33v-19h-175v19h21q18 0 24 7t6 25v339q0 15 -8 20.5t-25 5.5l-18 1v23h176q49 0 74.5 -3.5t50.5 -19.5q21 -13 34 -37.5t13 -49.5q0 -47 -36 -81t-83 -34q32 -8 58 -44q14 -20 36 -67q8 -18 17.5 -38.5t20.5 -31.5q11 -15 38 -15v-19h-29q-19 -1 -29 -1
q-14 0 -24.5 2t-20.5 9.5t-20.5 27t-25.5 58.5q-13 30 -26 61q-23 44 -82 44h-20v-124zM359 390q65 0 94 15q42 22 42 83q0 24 -7.5 43.5t-23.5 31.5t-30.5 14.5t-38.5 2.5q-36 0 -44.5 -6t-8.5 -40v-144h17z" />
    <glyph glyph-name="macron" unicode="&#xaf;" horiz-adv-x="342" 
d="M225 170q0 -84 17.5 -110.5t77.5 -26.5v-33h-288v33q60 0 77 26t17 111v392q0 84 -17.5 110.5t-76.5 26.5v33h288v-33q-60 0 -77.5 -26.5t-17.5 -110.5v-392zM63 803q-23 0 -39 16t-16 39q0 24 15.5 40.5t38.5 16.5q24 0 40 -17t16 -41q0 -22 -16 -38t-39 -16zM285 803
q-23 0 -39 16t-16 39q0 24 15.5 40.5t38.5 16.5q24 0 40 -17t16 -41q0 -22 -16 -38t-39 -16z" />
    <glyph glyph-name="degree" unicode="&#xb0;" 
d="M220 425q-62 0 -106 44t-44 106t44 106t106 44t106 -44t44 -106t-44 -106t-106 -44zM220 466q46 0 77.5 31.5t31.5 77.5q0 45 -32 77t-78 32q-44 0 -76 -32t-32 -77q0 -46 31.5 -77.5t77.5 -31.5z" />
    <glyph glyph-name="plusminus" unicode="&#xb1;" 
d="M221 336v164h58v-164h181v-58h-181v-165h-58v165h-182v58h182zM39 0v58h421v-58h-421z" />
    <glyph glyph-name="twosuperior" unicode="&#xb2;" horiz-adv-x="342" 
d="M225 170q0 -84 17.5 -110.5t77.5 -26.5v-33h-288v33q60 0 77 26t17 111v392q0 84 -17.5 110.5t-76.5 26.5v33h288v-33q-60 0 -77.5 -26.5t-17.5 -110.5v-392z" />
    <glyph glyph-name="threesuperior" unicode="&#xb3;" horiz-adv-x="263" 
d="M178 137q0 -72 9 -87t59 -21v-29h-224v30q49 6 58.5 21.5t9.5 86.5v214q0 34 -4 46q-9 26 -61 26v24l153 59v-370zM121 610q-27 0 -47 19t-20 47q0 27 19 47t47 20t47.5 -19.5t19.5 -47.5q0 -27 -19.5 -46.5t-46.5 -19.5z" />
    <glyph glyph-name="mu" unicode="&#xb5;" horiz-adv-x="553" 
d="M369 71q-46 -47 -83 -66q-32 -16 -61 -16q-20 0 -31 1.5t-17 6.5q0 -30 4.5 -63t10.5 -71q0 -25 -11 -40q-14 -19 -42 -19q-27 0 -41 18t-14 41q6 46 11 102t5 87q-13 19 -17 47.5t-4 74.5v178q0 34 -4 46q-9 26 -61 26v24l153 59v-359q0 -45 19.5 -75.5t62.5 -30.5
q37 0 80 35q19 16 40 36v239q0 34 -4 46q-9 26 -61 26v24l153 59v-370q0 -72 9 -87t60 -21v-29h-157v71z" />
    <glyph glyph-name="paragraph" unicode="&#xb6;" horiz-adv-x="658" 
d="M285 315h-46q-97 0 -154 48q-64 53 -64 155q0 94 52 151q57 63 162 63h412v-33q-59 0 -71 -14.5t-12 -85.5v-642q0 -74 11 -87t72 -13v-33h-464v33q77 0 89.5 12.5t12.5 87.5v358zM373 699v-842h103v842h-103zM285 699q-88 0 -122 -52q-27 -41 -27 -127q0 -73 24 -115
q32 -57 106 -57h19v351z" />
    <glyph glyph-name="periodcentered" unicode="&#xb7;" horiz-adv-x="250" 
d="M124 336q26 0 45 -19t19 -46q0 -25 -19 -43t-45 -18q-24 0 -43 18t-19 44t18 45t44 19z" />
    <glyph glyph-name="periodcentered" unicode="&#x2219;" horiz-adv-x="250" 
d="M124 336q26 0 45 -19t19 -46q0 -25 -19 -43t-45 -18q-24 0 -43 18t-19 44t18 45t44 19z" />
    <glyph glyph-name="cedilla" unicode="&#xb8;" 
d="M142 560q-23 0 -39 16t-16 39q0 24 15.5 40.5t38.5 16.5q24 0 40 -17t16 -41q0 -22 -16 -38t-39 -16zM364 560q-23 0 -39 16t-16 39q0 24 15.5 40.5t38.5 16.5q24 0 40 -17t16 -41q0 -22 -16 -38t-39 -16zM133 275q0 -94 30 -158q40 -85 124 -85q49 0 91.5 24.5
t72.5 66.5l17 -16q-33 -54 -83.5 -86t-110.5 -32q-103 0 -172.5 73.5t-69.5 177.5q0 101 62 178q66 82 167 82q91 0 151 -67t60 -158h-339zM371 313q1 12 1 18q0 54 -26 92q-30 44 -86 44q-59 0 -93 -51q-29 -44 -29 -103h233z" />
    <glyph glyph-name="onesuperior" unicode="&#xb9;" horiz-adv-x="340" 
d="M302 398v-33h-265v33h265zM24 585q0 63 40.5 110.5t106.5 47.5q64 0 106 -50q38 -46 38 -107q0 -59 -42 -104t-106 -45q-61 0 -102 44.5t-41 103.5zM90 598q0 -49 14 -86q21 -55 63 -55q45 0 66 52q16 39 16 88q0 46 -15 80q-20 46 -63 46q-44 0 -65 -45q-16 -34 -16 -80
z" />
    <glyph glyph-name="guillemotright" unicode="&#xbb;" horiz-adv-x="474" 
d="M257 253l-200 -167l-14 14l112 153l-112 159l14 15zM432 253l-200 -167l-13 14l112 153l-112 159l13 15z" />
    <glyph glyph-name="onequarter" unicode="&#xbc;" horiz-adv-x="237" 
d="M24 448l152 59v-436v-43q0 -44 -5 -78.5t-19 -56.5q-19 -33 -55.5 -56.5t-74.5 -23.5q-29 0 -49 14q-24 17 -24 46q0 21 16.5 36.5t37.5 15.5q29 0 46 -43q8 -21 20 -21q11 0 15.5 10.5t4.5 25.5q-1 15 -1 20v435q0 34 -4 46q-9 26 -60 26v24zM115 610q-27 0 -47 19
t-20 47t18.5 47.5t46.5 19.5t48 -19t20 -48q0 -26 -20 -46t-46 -20z" />
    <glyph glyph-name="onehalf" unicode="&#xbd;" horiz-adv-x="553" 
d="M510 557l-29 -14q-45 72 -93 113q-64 54 -132 54q-57 0 -95 -38t-38 -95q0 -58 54 -96q36 -25 108 -47q90 -28 122 -42q64 -28 95 -67q38 -48 38 -123q0 -94 -64.5 -153.5t-159.5 -59.5q-29 0 -67 9q-84 20 -90 20q-15 0 -32 -8.5t-29 -20.5l-73 195l30 14
q57 -75 111 -118q74 -58 144 -58q61 0 104.5 37t43.5 98q0 95 -106 142q-98 36 -196 73q-107 55 -107 167q0 93 58.5 148.5t153.5 55.5q24 0 37 -3t43 -14l25.5 -8.5t28.5 -3.5q14 0 27 4.5t22 14.5z" />
    <glyph glyph-name="threequarters" unicode="&#xbe;" horiz-adv-x="448" 
d="M406 344l-24 -13q-50 64 -83 92q-52 44 -107 44q-31 0 -55 -19t-24 -49q0 -48 81 -80q75 -29 151 -57q82 -44 82 -122q0 -63 -50 -107t-113 -44q-18 0 -34 4q-21 7 -31 10t-19.5 6t-18.5 3q-15 0 -30 -6t-28 -17l-62 170l22 11q32 -53 89 -97q66 -51 118 -51
q35 0 61.5 23.5t26.5 58.5q0 52 -80 83q-75 26 -150 53q-81 41 -81 118q0 61 47.5 101.5t109.5 40.5q18 0 52 -8t47 -8q25 0 45 23z" />
    <glyph glyph-name="questiondown" unicode="&#xbf;" horiz-adv-x="263" 
d="M176 137q0 -72 9 -87t59 -21v-29h-223v30q49 6 58 21.5t9 86.5v214q0 34 -4 46q-9 26 -60 26v24l152 59v-370zM24 560q-23 0 -39 16t-16 39q0 24 15.5 40.5t38.5 16.5q24 0 40 -17t16 -41q0 -22 -16 -38t-39 -16zM246 560q-23 0 -39 16t-16 39q0 24 15.5 40.5t38.5 16.5
q24 0 40 -17t16 -41q0 -22 -16 -38t-39 -16z" />
    <glyph glyph-name="Agrave" unicode="&#xc0;" horiz-adv-x="658" 
d="M383 757l182 -544q9 -29 19 -57q26 -71 47 -94q11 -13 28 -20t37 -9v-33h-294v33q30 2 61 4q36 8 36 41q0 11 -5.5 29.5t-11.5 34.5l-41 123h-255l-13 -38q-15 -44 -30 -87q-10 -34 -10 -49q0 -34 31 -48q22 -10 63 -10v-33h-256v33q57 0 91 50q21 30 45 103l182 546z
M315 647l-113 -336h225z" />
    <glyph glyph-name="Agrave" unicode="&#x410;" horiz-adv-x="658" 
d="M383 757l182 -544q9 -29 19 -57q26 -71 47 -94q11 -13 28 -20t37 -9v-33h-294v33q30 2 61 4q36 8 36 41q0 11 -5.5 29.5t-11.5 34.5l-41 123h-255l-13 -38q-15 -44 -30 -87q-10 -34 -10 -49q0 -34 31 -48q22 -10 63 -10v-33h-256v33q57 0 91 50q21 30 45 103l182 546z
M315 647l-113 -336h225z" />
    <glyph glyph-name="Aacute" unicode="&#xc1;" horiz-adv-x="685" 
d="M558 732l65 -172l-24 -16q-71 95 -116 122q-55 33 -165 33q-64 0 -78.5 -21.5t-14.5 -115.5v-162h87q160 0 235 -35q94 -44 94 -155q0 -91 -87 -153q-80 -57 -176 -57h-345v33q60 0 76.5 26t16.5 111v392q0 87 -16 112t-77 25v33h525zM225 156q0 -71 13 -92
q19 -31 86 -31q82 0 144 45q68 49 68 126q0 79 -50 118q-58 45 -223 45h-38v-211z" />
    <glyph glyph-name="Aacute" unicode="&#x411;" horiz-adv-x="685" 
d="M558 732l65 -172l-24 -16q-71 95 -116 122q-55 33 -165 33q-64 0 -78.5 -21.5t-14.5 -115.5v-162h87q160 0 235 -35q94 -44 94 -155q0 -91 -87 -153q-80 -57 -176 -57h-345v33q60 0 76.5 26t16.5 111v392q0 87 -16 112t-77 25v33h525zM225 156q0 -71 13 -92
q19 -31 86 -31q82 0 144 45q68 49 68 126q0 79 -50 118q-58 45 -223 45h-38v-211z" />
    <glyph glyph-name="Acircumflex" unicode="&#xc2;" horiz-adv-x="685" 
d="M33 0v33q58 0 75 26t17 111v392q0 85 -16.5 111t-75.5 26v33h217q157 0 221 -18q129 -36 129 -151q0 -86 -66 -130q-50 -33 -147 -47q97 -3 169 -46q86 -52 86 -142q0 -105 -98 -157q-78 -41 -193 -41h-318zM224 133q0 -55 19.5 -77.5t75.5 -22.5q91 0 144 34
q64 41 64 127q0 102 -77 144q-59 32 -171 32h-55v-237zM282 403q98 0 147 27q66 36 66 126q0 72 -56 110q-49 33 -125 33q-55 0 -72.5 -23t-17.5 -80v-193h58z" />
    <glyph glyph-name="Acircumflex" unicode="&#x412;" horiz-adv-x="685" 
d="M33 0v33q58 0 75 26t17 111v392q0 85 -16.5 111t-75.5 26v33h217q157 0 221 -18q129 -36 129 -151q0 -86 -66 -130q-50 -33 -147 -47q97 -3 169 -46q86 -52 86 -142q0 -105 -98 -157q-78 -41 -193 -41h-318zM224 133q0 -55 19.5 -77.5t75.5 -22.5q91 0 144 34
q64 41 64 127q0 102 -77 144q-59 32 -171 32h-55v-237zM282 403q98 0 147 27q66 36 66 126q0 72 -56 110q-49 33 -125 33q-55 0 -72.5 -23t-17.5 -80v-193h58z" />
    <glyph glyph-name="Atilde" unicode="&#xc3;" horiz-adv-x="553" 
d="M225 170q0 -85 20 -111t90 -26v-33h-303v33q60 0 77 26t17 111v392q0 84 -17.5 110.5t-76.5 26.5v33h498l66 -173l-24 -16q-66 89 -77 101q-52 55 -175 55q-64 0 -79.5 -27t-15.5 -108v-394z" />
    <glyph glyph-name="Atilde" unicode="&#x413;" horiz-adv-x="553" 
d="M225 170q0 -85 20 -111t90 -26v-33h-303v33q60 0 77 26t17 111v392q0 84 -17.5 110.5t-76.5 26.5v33h498l66 -173l-24 -16q-66 89 -77 101q-52 55 -175 55q-64 0 -79.5 -27t-15.5 -108v-394z" />
    <glyph glyph-name="Adieresis" unicode="&#xc4;" horiz-adv-x="685" 
d="M109 72q18 29 27 63.5t9 67.5v359q0 85 -17.5 111t-82.5 26v33h604v-33q-59 0 -76.5 -26.5t-17.5 -110.5v-392q0 -84 17.5 -110.5t76.5 -26.5l74 -190l-25 -10q-67 85 -92 108q-65 59 -199 59h-165q-134 0 -198 -58q-23 -21 -93 -109l-25 10l74 190q46 0 64 5q29 8 45 34
zM346 33q71 0 90.5 25.5t19.5 111.5v394q0 92 -14 113.5t-81 21.5h-72q-61 0 -78.5 -26.5t-17.5 -110.5v-298q0 -66 -8 -107q-12 -60 -46 -111l-12 -13h219z" />
    <glyph glyph-name="Adieresis" unicode="&#x414;" horiz-adv-x="685" 
d="M109 72q18 29 27 63.5t9 67.5v359q0 85 -17.5 111t-82.5 26v33h604v-33q-59 0 -76.5 -26.5t-17.5 -110.5v-392q0 -84 17.5 -110.5t76.5 -26.5l74 -190l-25 -10q-67 85 -92 108q-65 59 -199 59h-165q-134 0 -198 -58q-23 -21 -93 -109l-25 10l74 190q46 0 64 5q29 8 45 34
zM346 33q71 0 90.5 25.5t19.5 111.5v394q0 92 -14 113.5t-81 21.5h-72q-61 0 -78.5 -26.5t-17.5 -110.5v-298q0 -66 -8 -107q-12 -60 -46 -111l-12 -13h219z" />
    <glyph glyph-name="Aring" unicode="&#xc5;" horiz-adv-x="658" 
d="M459 236h-29q0 85 -52 112q-32 17 -112 17h-41v-231q0 -64 17 -82.5t85 -18.5q134 0 198 58q26 24 94 109l24 -10l-74 -190h-536v33q59 0 76 26t17 111v392q0 85 -17 111t-76 26v33h523l70 -171l-25 -15q-71 94 -112 120q-53 33 -156 33q-74 0 -91 -19t-17 -95v-187h41
q81 0 118 22q47 28 47 103h28v-287z" />
    <glyph glyph-name="Aring" unicode="&#x415;" horiz-adv-x="658" 
d="M459 236h-29q0 85 -52 112q-32 17 -112 17h-41v-231q0 -64 17 -82.5t85 -18.5q134 0 198 58q26 24 94 109l24 -10l-74 -190h-536v33q59 0 76 26t17 111v392q0 85 -17 111t-76 26v33h523l70 -171l-25 -15q-71 94 -112 120q-53 33 -156 33q-74 0 -91 -19t-17 -95v-187h41
q81 0 118 22q47 28 47 103h28v-287z" />
    <glyph glyph-name="AE" unicode="&#xc6;" horiz-adv-x="965" 
d="M364 385l-152 -260q-9 -15 -16.5 -33.5t-7.5 -30.5q0 -17 16 -22.5t41 -5.5h26v-33h-308v33h11q48 0 86 42q10 11 59 86l184 296l-80 91q-66 76 -97 101q-62 50 -126 50v33h278v-33q-34 0 -50 -5q-29 -9 -29 -35q0 -15 18 -41l30 -38l186 -232v214q0 73 -15 100
q-20 37 -78 37v33h285v-33q-55 0 -76 -36q-17 -30 -17 -101v-214l186 232q21 27 29 38q19 27 19 41q0 25 -23.5 32.5t-55.5 7.5v33h278v-33q-72 0 -150 -75q-50 -52 -73 -76l-80 -91l184 -296q52 -79 58 -86q37 -42 87 -42h11v-33h-308v33h26q27 0 42 5t15 23q0 12 -8 31
t-16 33l-152 260l-69 -95v-120q0 -84 17 -110.5t76 -26.5v-33h-285v33q60 0 76.5 27t16.5 110v120z" />
    <glyph glyph-name="AE" unicode="&#x416;" horiz-adv-x="965" 
d="M364 385l-152 -260q-9 -15 -16.5 -33.5t-7.5 -30.5q0 -17 16 -22.5t41 -5.5h26v-33h-308v33h11q48 0 86 42q10 11 59 86l184 296l-80 91q-66 76 -97 101q-62 50 -126 50v33h278v-33q-34 0 -50 -5q-29 -9 -29 -35q0 -15 18 -41l30 -38l186 -232v214q0 73 -15 100
q-20 37 -78 37v33h285v-33q-55 0 -76 -36q-17 -30 -17 -101v-214l186 232q21 27 29 38q19 27 19 41q0 25 -23.5 32.5t-55.5 7.5v33h278v-33q-72 0 -150 -75q-50 -52 -73 -76l-80 -91l184 -296q52 -79 58 -86q37 -42 87 -42h11v-33h-308v33h26q27 0 42 5t15 23q0 12 -8 31
t-16 33l-152 260l-69 -95v-120q0 -84 17 -110.5t76 -26.5v-33h-285v33q60 0 76.5 27t16.5 110v120z" />
    <glyph glyph-name="Ccedilla" unicode="&#xc7;" horiz-adv-x="606" 
d="M192 366v34h94q76 0 119.5 37.5t43.5 116.5q0 68 -40 112t-110 44q-69 0 -123 -48q-40 -35 -92 -119l-29 14l66 176q9 -10 21.5 -14.5t27.5 -4.5q16 0 29.5 4t24.5 8q46 17 78 17q109 0 177 -46q75 -51 75 -144q0 -84 -56 -125q-45 -33 -135 -43q101 0 162 -50t61 -138
q0 -99 -78 -158.5t-202 -59.5q-109 0 -177 57q-51 43 -102 144l30 16q39 -83 84 -121q62 -53 161 -53q76 0 122.5 45.5t46.5 129.5q0 85 -44 127t-142 42h-93z" />
    <glyph glyph-name="Ccedilla" unicode="&#x417;" horiz-adv-x="606" 
d="M192 366v34h94q76 0 119.5 37.5t43.5 116.5q0 68 -40 112t-110 44q-69 0 -123 -48q-40 -35 -92 -119l-29 14l66 176q9 -10 21.5 -14.5t27.5 -4.5q16 0 29.5 4t24.5 8q46 17 78 17q109 0 177 -46q75 -51 75 -144q0 -84 -56 -125q-45 -33 -135 -43q101 0 162 -50t61 -138
q0 -99 -78 -158.5t-202 -59.5q-109 0 -177 57q-51 43 -102 144l30 16q39 -83 84 -121q62 -53 161 -53q76 0 122.5 45.5t46.5 129.5q0 85 -44 127t-142 42h-93z" />
    <glyph glyph-name="Egrave" unicode="&#xc8;" horiz-adv-x="764" 
d="M536 572q0 77 -16.5 102t-75.5 25v33h286v-33q-60 0 -77.5 -26.5t-17.5 -110.5v-392q0 -86 17 -111.5t78 -25.5v-33h-286v33q58 0 75 26t17 111v339l-311 -339q0 -86 17 -111.5t76 -25.5v-33h-285v33q59 0 76 26t17 111v392q0 85 -17 111t-76 26v33h285v-33
q-58 0 -75.5 -26.5t-17.5 -110.5v-329z" />
    <glyph glyph-name="Egrave" unicode="&#x418;" horiz-adv-x="764" 
d="M536 572q0 77 -16.5 102t-75.5 25v33h286v-33q-60 0 -77.5 -26.5t-17.5 -110.5v-392q0 -86 17 -111.5t78 -25.5v-33h-286v33q58 0 75 26t17 111v339l-311 -339q0 -86 17 -111.5t76 -25.5v-33h-285v33q59 0 76 26t17 111v392q0 85 -17 111t-76 26v33h285v-33
q-58 0 -75.5 -26.5t-17.5 -110.5v-329z" />
    <glyph glyph-name="Eacute" unicode="&#xc9;" horiz-adv-x="764" 
d="M230 905q36 -37 70.5 -55t81.5 -18q48 0 82.5 17.5t70.5 55.5l28 -13q-28 -54 -74 -89q-51 -39 -107 -39q-55 0 -106 39q-46 35 -73 89zM536 572q0 77 -16.5 102t-75.5 25v33h286v-33q-60 0 -77.5 -26.5t-17.5 -110.5v-392q0 -86 17 -111.5t78 -25.5v-33h-286v33
q58 0 75 26t17 111v339l-311 -339q0 -86 17 -111.5t76 -25.5v-33h-285v33q59 0 76 26t17 111v392q0 85 -17 111t-76 26v33h285v-33q-58 0 -75.5 -26.5t-17.5 -110.5v-329z" />
    <glyph glyph-name="Eacute" unicode="&#x419;" horiz-adv-x="764" 
d="M230 905q36 -37 70.5 -55t81.5 -18q48 0 82.5 17.5t70.5 55.5l28 -13q-28 -54 -74 -89q-51 -39 -107 -39q-55 0 -106 39q-46 35 -73 89zM536 572q0 77 -16.5 102t-75.5 25v33h286v-33q-60 0 -77.5 -26.5t-17.5 -110.5v-392q0 -86 17 -111.5t78 -25.5v-33h-286v33
q58 0 75 26t17 111v339l-311 -339q0 -86 17 -111.5t76 -25.5v-33h-285v33q59 0 76 26t17 111v392q0 85 -17 111t-76 26v33h285v-33q-58 0 -75.5 -26.5t-17.5 -110.5v-329z" />
    <glyph glyph-name="Ecircumflex" unicode="&#xca;" horiz-adv-x="711" 
d="M457 580q29 29 35 36q23 27 23 43q0 26 -28 35q-16 5 -51 5v33h278v-33q-63 0 -129 -51q-28 -22 -104 -100l-90 -91l194 -296q43 -66 63 -86q41 -42 92 -42h11v-33h-308v33h26q28 0 42.5 5t14.5 23q0 11 -5.5 21.5t-28.5 42.5l-172 260l-93 -95v-120q0 -85 16.5 -111
t76.5 -26v-33h-287v33q61 0 78 26t17 111v392q0 86 -17 111.5t-78 25.5v33h287v-33q-58 0 -75.5 -26.5t-17.5 -110.5v-214z" />
    <glyph glyph-name="Ecircumflex" unicode="&#x41a;" horiz-adv-x="711" 
d="M457 580q29 29 35 36q23 27 23 43q0 26 -28 35q-16 5 -51 5v33h278v-33q-63 0 -129 -51q-28 -22 -104 -100l-90 -91l194 -296q43 -66 63 -86q41 -42 92 -42h11v-33h-308v33h26q28 0 42.5 5t14.5 23q0 11 -5.5 21.5t-28.5 42.5l-172 260l-93 -95v-120q0 -85 16.5 -111
t76.5 -26v-33h-287v33q61 0 78 26t17 111v392q0 86 -17 111.5t-78 25.5v33h287v-33q-58 0 -75.5 -26.5t-17.5 -110.5v-214z" />
    <glyph glyph-name="Edieresis" unicode="&#xcb;" horiz-adv-x="685" 
d="M314 700q-61 0 -78.5 -26.5t-17.5 -111.5v-298q0 -67 -7 -113q-10 -67 -34.5 -104.5t-52.5 -53t-74 -15.5q-35 0 -60 18q-29 21 -29 54q0 27 17 44t44 17q36 0 49 -40t32 -40q14 0 24.5 11.5t18.5 29.5q13 29 18.5 61.5t5.5 69.5v359q0 85 -17.5 111t-82.5 26v33h579v-33
q-59 0 -76.5 -26.5t-17.5 -110.5v-392q0 -84 17.5 -110.5t76.5 -26.5v-33h-303v33q71 0 90.5 25.5t19.5 111.5v394q0 92 -14 113.5t-81 21.5z" />
    <glyph glyph-name="Edieresis" unicode="&#x41b;" horiz-adv-x="685" 
d="M314 700q-61 0 -78.5 -26.5t-17.5 -111.5v-298q0 -67 -7 -113q-10 -67 -34.5 -104.5t-52.5 -53t-74 -15.5q-35 0 -60 18q-29 21 -29 54q0 27 17 44t44 17q36 0 49 -40t32 -40q14 0 24.5 11.5t18.5 29.5q13 29 18.5 61.5t5.5 69.5v359q0 85 -17.5 111t-82.5 26v33h579v-33
q-59 0 -76.5 -26.5t-17.5 -110.5v-392q0 -84 17.5 -110.5t76.5 -26.5v-33h-303v33q71 0 90.5 25.5t19.5 111.5v394q0 92 -14 113.5t-81 21.5z" />
    <glyph glyph-name="Igrave" unicode="&#xcc;" horiz-adv-x="948" 
d="M811 170q0 -84 17.5 -110.5t77.5 -26.5v-33h-289v33q61 0 78 25.5t17 111.5v484l-251 -654h-38l-246 658l-3 -488q0 -85 16.5 -111t76.5 -26v-33h-233v33q60 0 77 26t17 111v392q0 85 -17 111t-77 26v33h216l219 -582l220 582h217v-33q-60 0 -77.5 -26.5t-17.5 -110.5
v-392z" />
    <glyph glyph-name="Igrave" unicode="&#x41c;" horiz-adv-x="948" 
d="M811 170q0 -84 17.5 -110.5t77.5 -26.5v-33h-289v33q61 0 78 25.5t17 111.5v484l-251 -654h-38l-246 658l-3 -488q0 -85 16.5 -111t76.5 -26v-33h-233v33q60 0 77 26t17 111v392q0 85 -17 111t-77 26v33h216l219 -582l220 582h217v-33q-60 0 -77.5 -26.5t-17.5 -110.5
v-392z" />
    <glyph glyph-name="Iacute" unicode="&#xcd;" horiz-adv-x="764" 
d="M536 399v163q0 85 -16.5 111t-75.5 26v33h286v-33q-60 0 -77.5 -26.5t-17.5 -110.5v-392q0 -86 17 -111.5t78 -25.5v-33h-286v33q58 0 75 26t17 111v183h-311v-183q0 -86 17 -111.5t76 -25.5v-33h-285v33q59 0 76 26t17 111v392q0 85 -17 111t-76 26v33h285v-33
q-58 0 -75.5 -26.5t-17.5 -110.5v-163h311z" />
    <glyph glyph-name="Iacute" unicode="&#x41d;" horiz-adv-x="764" 
d="M536 399v163q0 85 -16.5 111t-75.5 26v33h286v-33q-60 0 -77.5 -26.5t-17.5 -110.5v-392q0 -86 17 -111.5t78 -25.5v-33h-286v33q58 0 75 26t17 111v183h-311v-183q0 -86 17 -111.5t76 -25.5v-33h-285v33q59 0 76 26t17 111v392q0 85 -17 111t-76 26v33h285v-33
q-58 0 -75.5 -26.5t-17.5 -110.5v-163h311z" />
    <glyph glyph-name="Icircumflex" unicode="&#xce;" horiz-adv-x="764" 
d="M374 -11q-149 0 -242 117q-86 108 -86 260q0 151 88 260q95 117 243 117q149 0 243 -120q86 -110 86 -263t-88 -258q-94 -113 -244 -113zM161 370q0 -122 45 -220q58 -128 168 -128q115 0 173 123q44 94 44 223q0 126 -44 219q-58 123 -170 123q-111 0 -170 -121
q-46 -95 -46 -219z" />
    <glyph glyph-name="Icircumflex" unicode="&#x41e;" horiz-adv-x="764" 
d="M374 -11q-149 0 -242 117q-86 108 -86 260q0 151 88 260q95 117 243 117q149 0 243 -120q86 -110 86 -263t-88 -258q-94 -113 -244 -113zM161 370q0 -122 45 -220q58 -128 168 -128q115 0 173 123q44 94 44 223q0 126 -44 219q-58 123 -170 123q-111 0 -170 -121
q-46 -95 -46 -219z" />
    <glyph glyph-name="Idieresis" unicode="&#xcf;" horiz-adv-x="764" 
d="M318 699q-58 0 -75.5 -26.5t-17.5 -110.5v-392q0 -86 17 -111.5t76 -25.5v-33h-285v33q59 0 76 26t17 111v392q0 85 -17 111t-76 26v33h697v-33q-60 0 -77.5 -26.5t-17.5 -110.5v-392q0 -86 17 -111.5t78 -25.5v-33h-286v33q58 0 75 26t17 111v392q0 85 -16.5 111
t-75.5 26h-126z" />
    <glyph glyph-name="Idieresis" unicode="&#x41f;" horiz-adv-x="764" 
d="M318 699q-58 0 -75.5 -26.5t-17.5 -110.5v-392q0 -86 17 -111.5t76 -25.5v-33h-285v33q59 0 76 26t17 111v392q0 85 -17 111t-76 26v33h697v-33q-60 0 -77.5 -26.5t-17.5 -110.5v-392q0 -86 17 -111.5t78 -25.5v-33h-286v33q58 0 75 26t17 111v392q0 85 -16.5 111
t-75.5 26h-126z" />
    <glyph glyph-name="Eth" unicode="&#xd0;" horiz-adv-x="606" 
d="M225 170q0 -86 17 -111.5t77 -25.5v-33h-286v33q60 0 76.5 25.5t16.5 111.5v392q0 86 -16 111.5t-77 25.5v33h345q95 0 156 -46q69 -52 69 -144q0 -110 -91 -159q-72 -39 -200 -39h-87v-174zM225 377h38q113 0 165 30q70 40 70 141q0 77 -49 116q-44 35 -125 35
q-66 0 -85 -30q-14 -22 -14 -93v-199z" />
    <glyph glyph-name="Eth" unicode="&#x420;" horiz-adv-x="606" 
d="M225 170q0 -86 17 -111.5t77 -25.5v-33h-286v33q60 0 76.5 25.5t16.5 111.5v392q0 86 -16 111.5t-77 25.5v33h345q95 0 156 -46q69 -52 69 -144q0 -110 -91 -159q-72 -39 -200 -39h-87v-174zM225 377h38q113 0 165 30q70 40 70 141q0 77 -49 116q-44 35 -125 35
q-66 0 -85 -30q-14 -22 -14 -93v-199z" />
    <glyph glyph-name="Ntilde" unicode="&#xd1;" horiz-adv-x="685" 
d="M644 552l-25 -12q-48 63 -107 107q-74 55 -138 55q-113 0 -169 -106q-44 -83 -44 -207q0 -126 58 -223q69 -116 187 -116q75 0 135 47q50 39 94 113l21 -12q-43 -94 -114 -149q-78 -60 -174 -60q-143 0 -235 105q-87 100 -87 245q0 69 20.5 134t61.5 127t98 100
q64 43 136 43q23 0 43 -4.5t37 -10.5t27 -9q22 -7 40 -7q17 0 30 4.5t38 15.5z" />
    <glyph glyph-name="Ntilde" unicode="&#x421;" horiz-adv-x="685" 
d="M644 552l-25 -12q-48 63 -107 107q-74 55 -138 55q-113 0 -169 -106q-44 -83 -44 -207q0 -126 58 -223q69 -116 187 -116q75 0 135 47q50 39 94 113l21 -12q-43 -94 -114 -149q-78 -60 -174 -60q-143 0 -235 105q-87 100 -87 245q0 69 20.5 134t61.5 127t98 100
q64 43 136 43q23 0 43 -4.5t37 -10.5t27 -9q22 -7 40 -7q17 0 30 4.5t38 15.5z" />
    <glyph glyph-name="Ograve" unicode="&#xd2;" horiz-adv-x="606" 
d="M352 170q0 -85 18.5 -111t86.5 -26v-33h-308v33q67 0 85.5 25.5t18.5 111.5v418v20.5t1 21.5q0 33 -9 48q-13 21 -47 21q-73 0 -136 -49q-56 -44 -92 -114l-27 11l72 185h577l70 -185l-25 -11q-35 70 -93 114q-65 49 -137 49q-34 0 -47 -21q-9 -15 -9 -49v-20.5t1 -20.5
v-418z" />
    <glyph glyph-name="Ograve" unicode="&#x422;" horiz-adv-x="606" 
d="M352 170q0 -85 18.5 -111t86.5 -26v-33h-308v33q67 0 85.5 25.5t18.5 111.5v418v20.5t1 21.5q0 33 -9 48q-13 21 -47 21q-73 0 -136 -49q-56 -44 -92 -114l-27 11l72 185h577l70 -185l-25 -11q-35 70 -93 114q-65 49 -137 49q-34 0 -47 -21q-9 -15 -9 -49v-20.5t1 -20.5
v-418z" />
    <glyph glyph-name="Oacute" unicode="&#xd3;" horiz-adv-x="632" 
d="M324 184l-203 383q-33 62 -53 86q-39 46 -90 46v33h292v-33q-43 0 -53 -2q-34 -7 -34 -33q0 -10 12.5 -34.5t16.5 -31.5l159 -305l109 274q10 16 16.5 41.5t6.5 47.5q0 27 -23 37q-14 6 -48 6h-13v33h248v-33q-64 0 -97 -55q-10 -16 -32 -67q-28 -65 -56 -129
q-37 -86 -110 -247q-62 -138 -73 -155q-24 -37 -52 -52.5t-74 -15.5q-36 0 -62.5 19t-26.5 53q0 30 16.5 45.5t44.5 15.5q36 0 49 -40t32 -40q11 0 23 11.5t20 29.5z" />
    <glyph glyph-name="Oacute" unicode="&#x423;" horiz-adv-x="632" 
d="M324 184l-203 383q-33 62 -53 86q-39 46 -90 46v33h292v-33q-43 0 -53 -2q-34 -7 -34 -33q0 -10 12.5 -34.5t16.5 -31.5l159 -305l109 274q10 16 16.5 41.5t6.5 47.5q0 27 -23 37q-14 6 -48 6h-13v33h248v-33q-64 0 -97 -55q-10 -16 -32 -67q-28 -65 -56 -129
q-37 -86 -110 -247q-62 -138 -73 -155q-24 -37 -52 -52.5t-74 -15.5q-36 0 -62.5 19t-26.5 53q0 30 16.5 45.5t44.5 15.5q36 0 49 -40t32 -40q11 0 23 11.5t20 29.5z" />
    <glyph glyph-name="Ocircumflex" unicode="&#xd4;" horiz-adv-x="843" 
d="M470 122q0 -49 20 -69t75 -20v-33h-288v33q53 0 73.5 19.5t20.5 69.5q-149 0 -241 63q-97 66 -97 181q0 114 94.5 178.5t243.5 64.5q0 48 -21 69t-73 21v33h288v-33q-54 0 -74.5 -20.5t-20.5 -68.5q147 0 243 -67.5t96 -181.5q0 -115 -98 -179q-92 -60 -241 -60zM470 154
q97 0 163 67q62 63 62 147q0 82 -62 144q-66 66 -163 66v-424zM371 578q-98 0 -163 -66q-61 -62 -61 -143q0 -79 61 -144q67 -71 163 -71v424z" />
    <glyph glyph-name="Ocircumflex" unicode="&#x424;" horiz-adv-x="843" 
d="M470 122q0 -49 20 -69t75 -20v-33h-288v33q53 0 73.5 19.5t20.5 69.5q-149 0 -241 63q-97 66 -97 181q0 114 94.5 178.5t243.5 64.5q0 48 -21 69t-73 21v33h288v-33q-54 0 -74.5 -20.5t-20.5 -68.5q147 0 243 -67.5t96 -181.5q0 -115 -98 -179q-92 -60 -241 -60zM470 154
q97 0 163 67q62 63 62 147q0 82 -62 144q-66 66 -163 66v-424zM371 578q-98 0 -163 -66q-61 -62 -61 -143q0 -79 61 -144q67 -71 163 -71v424z" />
    <glyph glyph-name="Otilde" unicode="&#xd5;" horiz-adv-x="632" 
d="M505 144q39 -68 74 -91q30 -20 71 -20v-33h-294v33q35 0 47 3q28 7 28 31q0 15 -20 50q-13 21 -16 27l-102 171l-68 -105l-40 -64q-28 -48 -28 -70q0 -26 26 -36q18 -7 49 -7v-33h-254v33q60 0 94 28q23 19 61 83l134 212l-133 222q-46 81 -77 101t-79 20v33h296v-33
q-19 -1 -44.5 -2.5t-25.5 -24.5q0 -18 15 -46q19 -32 26 -44l80 -133l81 127q12 20 25 41q18 32 18 45q0 24 -26 31q-34 4 -46 6v33h246v-33q-44 0 -75 -17.5t-78 -89.5l-119 -185z" />
    <glyph glyph-name="Otilde" unicode="&#x425;" horiz-adv-x="632" 
d="M505 144q39 -68 74 -91q30 -20 71 -20v-33h-294v33q35 0 47 3q28 7 28 31q0 15 -20 50q-13 21 -16 27l-102 171l-68 -105l-40 -64q-28 -48 -28 -70q0 -26 26 -36q18 -7 49 -7v-33h-254v33q60 0 94 28q23 19 61 83l134 212l-133 222q-46 81 -77 101t-79 20v33h296v-33
q-19 -1 -44.5 -2.5t-25.5 -24.5q0 -18 15 -46q19 -32 26 -44l80 -133l81 127q12 20 25 41q18 32 18 45q0 24 -26 31q-34 4 -46 6v33h246v-33q-44 0 -75 -17.5t-78 -89.5l-119 -185z" />
    <glyph glyph-name="Odieresis" unicode="&#xd6;" horiz-adv-x="764" 
d="M804 -157l-25 -10q-67 85 -92 108q-65 59 -199 59h-455v33q58 0 75.5 26.5t17.5 110.5v392q0 86 -17 111.5t-76 25.5v33h285v-33q-59 0 -76 -26t-17 -111v-392q0 -94 14 -115.5t79 -21.5h126q63 0 77.5 22.5t14.5 114.5v392q0 85 -16.5 111t-75.5 26v33h286v-33
q-61 0 -78 -26t-17 -111v-392q0 -86 17 -111.5t78 -25.5z" />
    <glyph glyph-name="Odieresis" unicode="&#x426;" horiz-adv-x="764" 
d="M804 -157l-25 -10q-67 85 -92 108q-65 59 -199 59h-455v33q58 0 75.5 26.5t17.5 110.5v392q0 86 -17 111.5t-76 25.5v33h285v-33q-59 0 -76 -26t-17 -111v-392q0 -94 14 -115.5t79 -21.5h126q63 0 77.5 22.5t14.5 114.5v392q0 85 -16.5 111t-75.5 26v33h286v-33
q-61 0 -78 -26t-17 -111v-392q0 -86 17 -111.5t78 -25.5z" />
    <glyph glyph-name="multiply" unicode="&#xd7;" horiz-adv-x="764" 
d="M536 399v163q0 85 -16.5 111t-75.5 26v33h286v-33q-60 0 -77.5 -26.5t-17.5 -110.5v-392q0 -86 17 -111.5t78 -25.5v-33h-286v33q58 0 75 26t17 111v183q-66 -37 -118 -55q-63 -22 -119 -22q-91 0 -130 42q-43 46 -43 162v82q0 85 -17 111t-76 26v33h285v-33
q-59 0 -76 -26t-17 -111v-81q0 -75 19 -106q24 -39 91 -39q46 0 105 20q48 16 96 43z" />
    <glyph glyph-name="multiply" unicode="&#x427;" horiz-adv-x="764" 
d="M536 399v163q0 85 -16.5 111t-75.5 26v33h286v-33q-60 0 -77.5 -26.5t-17.5 -110.5v-392q0 -86 17 -111.5t78 -25.5v-33h-286v33q58 0 75 26t17 111v183q-66 -37 -118 -55q-63 -22 -119 -22q-91 0 -130 42q-43 46 -43 162v82q0 85 -17 111t-76 26v33h285v-33
q-59 0 -76 -26t-17 -111v-81q0 -75 19 -106q24 -39 91 -39q46 0 105 20q48 16 96 43z" />
    <glyph glyph-name="Oslash" unicode="&#xd8;" horiz-adv-x="1027" 
d="M366 33q65 0 79.5 22.5t14.5 114.5v392q0 84 -17.5 110.5t-76.5 26.5v33h288v-33q-61 0 -78 -25.5t-17 -111.5v-392q0 -93 14.5 -115t80.5 -22h50q63 0 77.5 22.5t14.5 114.5v392q0 85 -16.5 111t-75.5 26v33h286v-33q-61 0 -78 -26t-17 -111v-392q0 -86 17 -111.5
t78 -25.5v-33h-957v33q58 0 75.5 26.5t17.5 110.5v392q0 86 -17 111.5t-76 25.5v33h285v-33q-59 0 -76 -26t-17 -111v-392q0 -94 14 -115.5t79 -21.5h48z" />
    <glyph glyph-name="Oslash" unicode="&#x428;" horiz-adv-x="1027" 
d="M366 33q65 0 79.5 22.5t14.5 114.5v392q0 84 -17.5 110.5t-76.5 26.5v33h288v-33q-61 0 -78 -25.5t-17 -111.5v-392q0 -93 14.5 -115t80.5 -22h50q63 0 77.5 22.5t14.5 114.5v392q0 85 -16.5 111t-75.5 26v33h286v-33q-61 0 -78 -26t-17 -111v-392q0 -86 17 -111.5
t78 -25.5v-33h-957v33q58 0 75.5 26.5t17.5 110.5v392q0 86 -17 111.5t-76 25.5v33h285v-33q-59 0 -76 -26t-17 -111v-392q0 -94 14 -115.5t79 -21.5h48z" />
    <glyph glyph-name="Ugrave" unicode="&#xd9;" horiz-adv-x="1027" 
d="M1064 -157l-25 -10q-67 85 -92 108q-65 59 -199 59h-715v33q58 0 75.5 26.5t17.5 110.5v392q0 86 -17 111.5t-76 25.5v33h285v-33q-59 0 -76 -26t-17 -111v-392q0 -94 14 -115.5t79 -21.5h48q65 0 79.5 22.5t14.5 114.5v392q0 84 -17.5 110.5t-76.5 26.5v33h288v-33
q-61 0 -78 -25.5t-17 -111.5v-392q0 -93 14.5 -115t80.5 -22h50q63 0 77.5 22.5t14.5 114.5v392q0 85 -16.5 111t-75.5 26v33h286v-33q-61 0 -78 -26t-17 -111v-392q0 -84 17.5 -110.5t77.5 -26.5z" />
    <glyph glyph-name="Ugrave" unicode="&#x429;" horiz-adv-x="1027" 
d="M1064 -157l-25 -10q-67 85 -92 108q-65 59 -199 59h-715v33q58 0 75.5 26.5t17.5 110.5v392q0 86 -17 111.5t-76 25.5v33h285v-33q-59 0 -76 -26t-17 -111v-392q0 -94 14 -115.5t79 -21.5h48q65 0 79.5 22.5t14.5 114.5v392q0 84 -17.5 110.5t-76.5 26.5v33h288v-33
q-61 0 -78 -25.5t-17 -111.5v-392q0 -93 14.5 -115t80.5 -22h50q63 0 77.5 22.5t14.5 114.5v392q0 85 -16.5 111t-75.5 26v33h286v-33q-61 0 -78 -26t-17 -111v-392q0 -84 17.5 -110.5t77.5 -26.5z" />
    <glyph glyph-name="Uacute" unicode="&#xda;" horiz-adv-x="685" 
d="M115 699h-6q-45 -6 -156 -153l-25 15l70 171h402v-33q-60 0 -76.5 -25.5t-16.5 -111.5v-162h87q130 0 200 -35q91 -46 91 -155q0 -93 -66.5 -151.5t-158.5 -58.5h-345v33q60 0 76.5 26t16.5 111v392q0 92 -15 114.5t-78 22.5zM307 156q0 -71 13 -92q19 -31 86 -31
q77 0 125.5 45.5t48.5 125.5q0 100 -69 136q-51 27 -166 27h-38v-211z" />
    <glyph glyph-name="Uacute" unicode="&#x42a;" horiz-adv-x="685" 
d="M115 699h-6q-45 -6 -156 -153l-25 15l70 171h402v-33q-60 0 -76.5 -25.5t-16.5 -111.5v-162h87q130 0 200 -35q91 -46 91 -155q0 -93 -66.5 -151.5t-158.5 -58.5h-345v33q60 0 76.5 26t16.5 111v392q0 92 -15 114.5t-78 22.5zM307 156q0 -71 13 -92q19 -31 86 -31
q77 0 125.5 45.5t48.5 125.5q0 100 -69 136q-51 27 -166 27h-38v-211z" />
    <glyph glyph-name="Ucircumflex" unicode="&#xdb;" horiz-adv-x="948" 
d="M225 400h87q130 0 200 -35q91 -46 91 -155q0 -93 -66.5 -151.5t-158.5 -58.5h-345v33q60 0 76.5 26t16.5 111v392q0 87 -16 112t-77 25v33h286v-33q-60 0 -77 -26t-17 -111v-162zM819 170q0 -84 17.5 -110.5t77.5 -26.5v-33h-288v33q60 0 77 26t17 111v392
q0 84 -17.5 110.5t-76.5 26.5v33h288v-33q-60 0 -77.5 -26.5t-17.5 -110.5v-392zM225 156q0 -71 13 -92q19 -31 86 -31q77 0 125.5 45.5t48.5 125.5q0 100 -69 136q-51 27 -166 27h-38v-211z" />
    <glyph glyph-name="Ucircumflex" unicode="&#x42b;" horiz-adv-x="948" 
d="M225 400h87q130 0 200 -35q91 -46 91 -155q0 -93 -66.5 -151.5t-158.5 -58.5h-345v33q60 0 76.5 26t16.5 111v392q0 87 -16 112t-77 25v33h286v-33q-60 0 -77 -26t-17 -111v-162zM819 170q0 -84 17.5 -110.5t77.5 -26.5v-33h-288v33q60 0 77 26t17 111v392
q0 84 -17.5 110.5t-76.5 26.5v33h288v-33q-60 0 -77.5 -26.5t-17.5 -110.5v-392zM225 156q0 -71 13 -92q19 -31 86 -31q77 0 125.5 45.5t48.5 125.5q0 100 -69 136q-51 27 -166 27h-38v-211z" />
    <glyph glyph-name="Udieresis" unicode="&#xdc;" horiz-adv-x="606" 
d="M225 400h87q130 0 200 -35q91 -46 91 -155q0 -93 -66.5 -151.5t-158.5 -58.5h-345v33q60 0 76.5 26t16.5 111v392q0 87 -16 112t-77 25v33h285v-33q-60 0 -76.5 -25.5t-16.5 -111.5v-162zM225 156q0 -71 13 -92q19 -31 86 -31q77 0 125.5 45.5t48.5 125.5q0 100 -69 136
q-51 27 -166 27h-38v-211z" />
    <glyph glyph-name="Udieresis" unicode="&#x42c;" horiz-adv-x="606" 
d="M225 400h87q130 0 200 -35q91 -46 91 -155q0 -93 -66.5 -151.5t-158.5 -58.5h-345v33q60 0 76.5 26t16.5 111v392q0 87 -16 112t-77 25v33h285v-33q-60 0 -76.5 -25.5t-16.5 -111.5v-162zM225 156q0 -71 13 -92q19 -31 86 -31q77 0 125.5 45.5t48.5 125.5q0 100 -69 136
q-51 27 -166 27h-38v-211z" />
    <glyph glyph-name="Yacute" unicode="&#xdd;" horiz-adv-x="685" 
d="M523 399q0 120 -45 201q-57 102 -168 102q-64 0 -137 -54q-59 -44 -108 -108l-25 12l67 180q27 -12 32 -14q17 -6 36 -6q13 0 22.5 2t36 11.5t45.5 13.5t43 4q72 0 137 -43q58 -38 99 -100.5t60.5 -120t19.5 -126.5q0 -147 -87 -252q-92 -112 -235 -112q-96 0 -174 60
q-71 55 -114 149l21 12q43 -73 93 -112q61 -48 136 -48q110 0 180 99q63 89 63 204h-345v46h347z" />
    <glyph glyph-name="Yacute" unicode="&#x42d;" horiz-adv-x="685" 
d="M523 399q0 120 -45 201q-57 102 -168 102q-64 0 -137 -54q-59 -44 -108 -108l-25 12l67 180q27 -12 32 -14q17 -6 36 -6q13 0 22.5 2t36 11.5t45.5 13.5t43 4q72 0 137 -43q58 -38 99 -100.5t60.5 -120t19.5 -126.5q0 -147 -87 -252q-92 -112 -235 -112q-96 0 -174 60
q-71 55 -114 149l21 12q43 -73 93 -112q61 -48 136 -48q110 0 180 99q63 89 63 204h-345v46h347z" />
    <glyph glyph-name="Thorn" unicode="&#xde;" horiz-adv-x="1027" 
d="M333 353h-108v-183q0 -86 17 -111.5t76 -25.5v-33h-285v33q59 0 76 26t17 111v392q0 85 -17 111t-76 26v33h285v-33q-58 0 -75.5 -26.5t-17.5 -110.5v-163h109q0 139 88 239q92 105 231 105q145 0 235 -120q82 -110 82 -263t-84 -258q-90 -113 -236 -113q-143 0 -233 112
q-84 104 -84 252zM446 370q0 -125 41 -220q55 -128 163 -128q113 0 167 123q41 93 41 223q0 127 -41 219q-55 123 -164 123t-164 -121q-43 -94 -43 -219z" />
    <glyph glyph-name="Thorn" unicode="&#x42e;" horiz-adv-x="1027" 
d="M333 353h-108v-183q0 -86 17 -111.5t76 -25.5v-33h-285v33q59 0 76 26t17 111v392q0 85 -17 111t-76 26v33h285v-33q-58 0 -75.5 -26.5t-17.5 -110.5v-163h109q0 139 88 239q92 105 231 105q145 0 235 -120q82 -110 82 -263t-84 -258q-90 -113 -236 -113q-143 0 -233 112
q-84 104 -84 252zM446 370q0 -125 41 -220q55 -128 163 -128q113 0 167 123q41 93 41 223q0 127 -41 219q-55 123 -164 123t-164 -121q-43 -94 -43 -219z" />
    <glyph glyph-name="germandbls" unicode="&#xdf;" horiz-adv-x="632" 
d="M337 357l-205 -357h-166v33q64 0 91 35q7 10 36 59l134 239q-77 10 -130 57q-58 52 -58 126q0 98 89 145q71 38 178 38h294v-33q-66 0 -83 -39q-10 -22 -10 -100v-390q0 -86 17 -111.5t76 -25.5v-33h-285v33q59 0 76 26t17 111v187h-71zM408 590q0 64 -11 82
q-17 27 -75 27q-73 0 -123 -38q-55 -42 -55 -112q0 -79 68 -122q59 -37 144 -37h52v200z" />
    <glyph glyph-name="germandbls" unicode="&#x42f;" horiz-adv-x="632" 
d="M337 357l-205 -357h-166v33q64 0 91 35q7 10 36 59l134 239q-77 10 -130 57q-58 52 -58 126q0 98 89 145q71 38 178 38h294v-33q-66 0 -83 -39q-10 -22 -10 -100v-390q0 -86 17 -111.5t76 -25.5v-33h-285v33q59 0 76 26t17 111v187h-71zM408 590q0 64 -11 82
q-17 27 -75 27q-73 0 -123 -38q-55 -42 -55 -112q0 -79 68 -122q59 -37 144 -37h52v200z" />
    <glyph glyph-name="agrave" unicode="&#xe0;" horiz-adv-x="474" 
d="M310 361q0 46 -12 71q-17 35 -58 35q-34 0 -53.5 -20.5t-28 -51.5t-20 -42.5t-38.5 -11.5q-47 0 -47 44q0 56 66 88q55 27 116 27q36 0 70 -8t57.5 -27.5t29.5 -46.5t6 -67v-228q0 -40 7 -54t23 -14q12 0 20.5 6t20.5 19l13 -21q-29 -43 -55 -58q-20 -12 -47 -12
q-30 0 -47.5 19t-20.5 51q-41 -33 -74 -49q-43 -21 -86 -21q-52 0 -85 33t-33 86q0 87 99 136q55 27 177 51v66zM310 262q-65 -11 -117 -45q-64 -42 -64 -98q0 -34 20.5 -55.5t52.5 -21.5q26 0 57 17.5t51 39.5v163z" />
    <glyph glyph-name="agrave" unicode="&#x430;" horiz-adv-x="474" 
d="M310 361q0 46 -12 71q-17 35 -58 35q-34 0 -53.5 -20.5t-28 -51.5t-20 -42.5t-38.5 -11.5q-47 0 -47 44q0 56 66 88q55 27 116 27q36 0 70 -8t57.5 -27.5t29.5 -46.5t6 -67v-228q0 -40 7 -54t23 -14q12 0 20.5 6t20.5 19l13 -21q-29 -43 -55 -58q-20 -12 -47 -12
q-30 0 -47.5 19t-20.5 51q-41 -33 -74 -49q-43 -21 -86 -21q-52 0 -85 33t-33 86q0 87 99 136q55 27 177 51v66zM310 262q-65 -11 -117 -45q-64 -42 -64 -98q0 -34 20.5 -55.5t52.5 -21.5q26 0 57 17.5t51 39.5v163z" />
    <glyph glyph-name="aacute" unicode="&#xe1;" horiz-adv-x="527" 
d="M83 402l54 58q50 40 127 40q99 0 163 -84q59 -77 59 -179q0 -99 -65.5 -173.5t-162.5 -74.5q-94 0 -157.5 78.5t-63.5 189.5q0 162 55 268q66 127 194 127q57 0 77 1t60 8q10 2 21.5 14t17.5 19l17 -5q0 -68 -48 -97.5t-164 -29.5q-101 0 -142 -55q-13 -17 -42 -105z
M385 256q0 77 -23 133q-32 78 -98 78q-68 0 -101 -75q-25 -57 -25 -134q0 -79 23 -144q33 -92 97 -92q68 0 102 88q25 65 25 146z" />
    <glyph glyph-name="aacute" unicode="&#x431;" horiz-adv-x="527" 
d="M83 402l54 58q50 40 127 40q99 0 163 -84q59 -77 59 -179q0 -99 -65.5 -173.5t-162.5 -74.5q-94 0 -157.5 78.5t-63.5 189.5q0 162 55 268q66 127 194 127q57 0 77 1t60 8q10 2 21.5 14t17.5 19l17 -5q0 -68 -48 -97.5t-164 -29.5q-101 0 -142 -55q-13 -17 -42 -105z
M385 256q0 77 -23 133q-32 78 -98 78q-68 0 -101 -75q-25 -57 -25 -134q0 -79 23 -144q33 -92 97 -92q68 0 102 88q25 65 25 146z" />
    <glyph glyph-name="acircumflex" unicode="&#xe2;" 
d="M22 0v29q42 0 55 23.5t13 84.5v215q0 61 -11 82q-14 26 -57 26v29h217q95 0 149 -27.5t54 -85.5q0 -59 -39 -87q-32 -22 -99 -31q72 -2 116 -29q53 -33 53 -97q0 -72 -73 -106q-56 -26 -142 -26h-236zM178 89q0 -39 7.5 -49.5t48.5 -10.5q65 0 100 22q40 25 40 79
q0 68 -48 93q-38 20 -122 20h-26v-154zM207 270q69 0 101 18q42 24 42 83q0 43 -33 66t-87 23q-34 0 -43 -9t-9 -35v-18v-128h29z" />
    <glyph glyph-name="acircumflex" unicode="&#x432;" 
d="M22 0v29q42 0 55 23.5t13 84.5v215q0 61 -11 82q-14 26 -57 26v29h217q95 0 149 -27.5t54 -85.5q0 -59 -39 -87q-32 -22 -99 -31q72 -2 116 -29q53 -33 53 -97q0 -72 -73 -106q-56 -26 -142 -26h-236zM178 89q0 -39 7.5 -49.5t48.5 -10.5q65 0 100 22q40 25 40 79
q0 68 -48 93q-38 20 -122 20h-26v-154zM207 270q69 0 101 18q42 24 42 83q0 43 -33 66t-87 23q-34 0 -43 -9t-9 -35v-18v-128h29z" />
    <glyph glyph-name="atilde" unicode="&#xe3;" horiz-adv-x="448" 
d="M246 460q-51 0 -59.5 -13.5t-8.5 -94.5v-215q0 -72 8.5 -87t59.5 -21v-29h-224v29q50 6 59 21t9 87v215q0 72 -9 87t-59 21v29h380l63 -186l-23 -10q-116 167 -154 167h-42z" />
    <glyph glyph-name="atilde" unicode="&#x433;" horiz-adv-x="448" 
d="M246 460q-51 0 -59.5 -13.5t-8.5 -94.5v-215q0 -72 8.5 -87t59.5 -21v-29h-224v29q50 6 59 21t9 87v215q0 72 -9 87t-59 21v29h380l63 -186l-23 -10q-116 167 -154 167h-42z" />
    <glyph glyph-name="adieresis" unicode="&#xe4;" horiz-adv-x="527" 
d="M555 -157l-23 -10q-69 99 -77 108q-51 58 -166 58h-52q-115 0 -165 -57q-9 -10 -78 -109l-23 10l66 186h23q31 0 36.5 1.5t15 12t18 41t8.5 52.5v239q0 57 -13.5 74.5t-60.5 17.5v22h428v-29q-42 0 -55 -24t-13 -84v-215q0 -62 12.5 -85t55.5 -23zM268 29q48 0 60 25
q8 17 8 83v215v30t1 26q0 38 -8.5 44.5t-49.5 6.5l-35 1q-46 -1 -58.5 -15.5t-12.5 -69.5v-199q0 -76 -18 -119q-6 -14 -18 -28h131z" />
    <glyph glyph-name="adieresis" unicode="&#x434;" horiz-adv-x="527" 
d="M555 -157l-23 -10q-69 99 -77 108q-51 58 -166 58h-52q-115 0 -165 -57q-9 -10 -78 -109l-23 10l66 186h23q31 0 36.5 1.5t15 12t18 41t8.5 52.5v239q0 57 -13.5 74.5t-60.5 17.5v22h428v-29q-42 0 -55 -24t-13 -84v-215q0 -62 12.5 -85t55.5 -23zM268 29q48 0 60 25
q8 17 8 83v215v30t1 26q0 38 -8.5 44.5t-49.5 6.5l-35 1q-46 -1 -58.5 -15.5t-12.5 -69.5v-199q0 -76 -18 -119q-6 -14 -18 -28h131z" />
    <glyph glyph-name="aring" unicode="&#xe5;" 
d="M133 275q0 -94 30 -158q40 -85 124 -85q49 0 91.5 24.5t72.5 66.5l17 -16q-33 -54 -83.5 -86t-110.5 -32q-103 0 -172.5 73.5t-69.5 177.5q0 101 62 178q66 82 167 82q91 0 151 -67t60 -158h-339zM371 313q1 12 1 18q0 54 -26 92q-30 44 -86 44q-59 0 -93 -51
q-29 -44 -29 -103h233z" />
    <glyph glyph-name="aring" unicode="&#x435;" 
d="M133 275q0 -94 30 -158q40 -85 124 -85q49 0 91.5 24.5t72.5 66.5l17 -16q-33 -54 -83.5 -86t-110.5 -32q-103 0 -172.5 73.5t-69.5 177.5q0 101 62 178q66 82 167 82q91 0 151 -67t60 -158h-339zM371 313q1 12 1 18q0 54 -26 92q-30 44 -86 44q-59 0 -93 -51
q-29 -44 -29 -103h233z" />
    <glyph glyph-name="ae" unicode="&#xe6;" horiz-adv-x="764" 
d="M270 0v29q51 6 59.5 20.5t8.5 87.5v51l-50 60l-89 -129q-11 -16 -19 -29q-12 -21 -12 -32q0 -16 15 -22.5t39 -6.5v-29h-239v29q28 0 50.5 13t55.5 61l142 204l-78 74q-45 42 -65 55q-37 24 -81 24v29h223v-29q-24 0 -30.5 -7t-10.5 -28q-1 -9 14 -30.5t31 -37.5
l104 -125v120q0 72 -9 87t-59 21v29h224v-29q-50 -6 -59 -21t-9 -87v-120l104 125q15 15 30.5 37.5t14.5 30.5q-3 17 -5 21q-7 14 -36 14v29h223v-29q-45 0 -81 -23q-16 -10 -65 -56l-78 -74l142 -204q26 -37 43 -52q26 -22 63 -22v-29h-239v29q25 0 39.5 6t14.5 23
q0 9 -7 23t-24 38l-89 129l-50 -60v-51q0 -72 8.5 -87t59.5 -21v-29h-224z" />
    <glyph glyph-name="ae" unicode="&#x436;" horiz-adv-x="764" 
d="M270 0v29q51 6 59.5 20.5t8.5 87.5v51l-50 60l-89 -129q-11 -16 -19 -29q-12 -21 -12 -32q0 -16 15 -22.5t39 -6.5v-29h-239v29q28 0 50.5 13t55.5 61l142 204l-78 74q-45 42 -65 55q-37 24 -81 24v29h223v-29q-24 0 -30.5 -7t-10.5 -28q-1 -9 14 -30.5t31 -37.5
l104 -125v120q0 72 -9 87t-59 21v29h224v-29q-50 -6 -59 -21t-9 -87v-120l104 125q15 15 30.5 37.5t14.5 30.5q-3 17 -5 21q-7 14 -36 14v29h223v-29q-45 0 -81 -23q-16 -10 -65 -56l-78 -74l142 -204q26 -37 43 -52q26 -22 63 -22v-29h-239v29q25 0 39.5 6t14.5 23
q0 9 -7 23t-24 38l-89 129l-50 -60v-51q0 -72 8.5 -87t59.5 -21v-29h-224z" />
    <glyph glyph-name="ccedilla" unicode="&#xe7;" horiz-adv-x="448" 
d="M422 140q0 -62 -61 -105.5t-143 -43.5t-145 63q-19 19 -56 66l18 14q41 -54 70 -76q48 -36 111 -36q47 0 77.5 33.5t30.5 84.5q0 98 -108 98h-74v32h74q41 0 66 25t25 73q0 46 -21.5 72.5t-66.5 26.5q-57 0 -111 -65q-36 -48 -54 -71l-24 13l58 163q20 -23 45 -23
q13 0 46 8t53 8q73 0 120.5 -35t47.5 -99q0 -40 -32 -70.5t-82 -38.5q58 -5 93 -30q43 -30 43 -87z" />
    <glyph glyph-name="ccedilla" unicode="&#x437;" horiz-adv-x="448" 
d="M422 140q0 -62 -61 -105.5t-143 -43.5t-145 63q-19 19 -56 66l18 14q41 -54 70 -76q48 -36 111 -36q47 0 77.5 33.5t30.5 84.5q0 98 -108 98h-74v32h74q41 0 66 25t25 73q0 46 -21.5 72.5t-66.5 26.5q-57 0 -111 -65q-36 -48 -54 -71l-24 13l58 163q20 -23 45 -23
q13 0 46 8t53 8q73 0 120.5 -35t47.5 -99q0 -40 -32 -70.5t-82 -38.5q58 -5 93 -30q43 -30 43 -87z" />
    <glyph glyph-name="egrave" unicode="&#xe8;" horiz-adv-x="553" 
d="M178 117q0 -58 8.5 -70t59.5 -18v-29h-224v29q50 6 59 21t9 87v215q0 72 -9 87t-59 21v29h224v-29q-50 -6 -59 -21t-9 -87v-188l198 218q0 50 -9 61t-59 17v29h224v-29q-50 -6 -59 -21t-9 -87v-215q0 -72 8.5 -87t59.5 -21v-29h-224v29q51 6 59.5 20.5t8.5 87.5v194z" />
    <glyph glyph-name="egrave" unicode="&#x438;" horiz-adv-x="553" 
d="M178 117q0 -58 8.5 -70t59.5 -18v-29h-224v29q50 6 59 21t9 87v215q0 72 -9 87t-59 21v29h224v-29q-50 -6 -59 -21t-9 -87v-188l198 218q0 50 -9 61t-59 17v29h224v-29q-50 -6 -59 -21t-9 -87v-215q0 -72 8.5 -87t59.5 -21v-29h-224v29q51 6 59.5 20.5t8.5 87.5v194z" />
    <glyph glyph-name="eacute" unicode="&#xe9;" horiz-adv-x="553" 
d="M125 709q36 -37 70.5 -55t81.5 -18q48 0 82.5 17.5t70.5 55.5l28 -13q-28 -54 -74 -89q-51 -39 -107 -39q-55 0 -106 39q-46 35 -73 89zM178 117q0 -58 8.5 -70t59.5 -18v-29h-224v29q50 6 59 21t9 87v215q0 72 -9 87t-59 21v29h224v-29q-50 -6 -59 -21t-9 -87v-188
l198 218q0 50 -9 61t-59 17v29h224v-29q-50 -6 -59 -21t-9 -87v-215q0 -72 8.5 -87t59.5 -21v-29h-224v29q51 6 59.5 20.5t8.5 87.5v194z" />
    <glyph glyph-name="eacute" unicode="&#x439;" horiz-adv-x="553" 
d="M125 709q36 -37 70.5 -55t81.5 -18q48 0 82.5 17.5t70.5 55.5l28 -13q-28 -54 -74 -89q-51 -39 -107 -39q-55 0 -106 39q-46 35 -73 89zM178 117q0 -58 8.5 -70t59.5 -18v-29h-224v29q50 6 59 21t9 87v215q0 72 -9 87t-59 21v29h224v-29q-50 -6 -59 -21t-9 -87v-188
l198 218q0 50 -9 61t-59 17v29h224v-29q-50 -6 -59 -21t-9 -87v-215q0 -72 8.5 -87t59.5 -21v-29h-224v29q51 6 59.5 20.5t8.5 87.5v194z" />
    <glyph glyph-name="ecircumflex" unicode="&#xea;" horiz-adv-x="553" 
d="M302 357q21 21 28 30q17 22 17 38q0 35 -51 35v29h233v-29q-45 0 -81 -23q-16 -10 -65 -56l-78 -74l142 -204q26 -37 43 -52q26 -22 63 -22v-29h-239v29q25 0 39.5 6t14.5 23q0 11 -12 31q-15 23 -19 30l-93 131l-66 -62v-51q0 -72 8.5 -87t59.5 -21v-29h-224v29
q50 6 59 21t9 87v215q0 72 -9 87t-59 21v29h224v-29q-50 -6 -59 -21t-9 -87v-120z" />
    <glyph glyph-name="ecircumflex" unicode="&#x43a;" horiz-adv-x="553" 
d="M302 357q21 21 28 30q17 22 17 38q0 35 -51 35v29h233v-29q-45 0 -81 -23q-16 -10 -65 -56l-78 -74l142 -204q26 -37 43 -52q26 -22 63 -22v-29h-239v29q25 0 39.5 6t14.5 23q0 11 -12 31q-15 23 -19 30l-93 131l-66 -62v-51q0 -72 8.5 -87t59.5 -21v-29h-224v29
q50 6 59 21t9 87v215q0 72 -9 87t-59 21v29h224v-29q-50 -6 -59 -21t-9 -87v-120z" />
    <glyph glyph-name="edieresis" unicode="&#xeb;" horiz-adv-x="527" 
d="M251 460q-46 0 -58.5 -14.5t-12.5 -70.5v-199q0 -44 -6 -82t-25 -63q-33 -46 -93 -46q-31 0 -52 22t-21 47q0 26 15 42t39 16q39 0 45 -45.5t13 -45.5q10 0 17.5 6.5t16 23.5t12.5 39t4 46v239q0 57 -13.5 74.5t-60.5 17.5v22h428v-29q-42 0 -55 -24t-13 -84v-215
q0 -62 12.5 -85t55.5 -23v-29h-224v29q48 0 60 25q8 17 8 83v215v30t1 26q0 38 -8.5 44.5t-49.5 6.5z" />
    <glyph glyph-name="edieresis" unicode="&#x43b;" horiz-adv-x="527" 
d="M251 460q-46 0 -58.5 -14.5t-12.5 -70.5v-199q0 -44 -6 -82t-25 -63q-33 -46 -93 -46q-31 0 -52 22t-21 47q0 26 15 42t39 16q39 0 45 -45.5t13 -45.5q10 0 17.5 6.5t16 23.5t12.5 39t4 46v239q0 57 -13.5 74.5t-60.5 17.5v22h428v-29q-42 0 -55 -24t-13 -84v-215
q0 -62 12.5 -85t55.5 -23v-29h-224v29q48 0 60 25q8 17 8 83v215v30t1 26q0 38 -8.5 44.5t-49.5 6.5z" />
    <glyph glyph-name="igrave" unicode="&#xec;" horiz-adv-x="685" 
d="M476 489h177v-29q-50 0 -59 -14.5t-9 -93.5v-215q0 -65 14 -86.5t54 -21.5v-29h-224v29q39 0 51 15q17 22 17 93v215q0 42 0.5 52.5t2.5 18.5h-5l-155 -423h-48l-161 422h-4q2 -10 3 -25t1 -45v-215q0 -69 12.5 -88.5t55.5 -19.5v-29h-177v29q44 0 56 18t12 90v216
q0 69 -11.5 88t-56.5 19v29h175l141 -375z" />
    <glyph glyph-name="igrave" unicode="&#x43c;" horiz-adv-x="685" 
d="M476 489h177v-29q-50 0 -59 -14.5t-9 -93.5v-215q0 -65 14 -86.5t54 -21.5v-29h-224v29q39 0 51 15q17 22 17 93v215q0 42 0.5 52.5t2.5 18.5h-5l-155 -423h-48l-161 422h-4q2 -10 3 -25t1 -45v-215q0 -69 12.5 -88.5t55.5 -19.5v-29h-177v29q44 0 56 18t12 90v216
q0 69 -11.5 88t-56.5 19v29h175l141 -375z" />
    <glyph glyph-name="iacute" unicode="&#xed;" horiz-adv-x="553" 
d="M178 137q0 -74 8.5 -88t59.5 -20v-29h-224v29q50 6 59 21t9 87v215q0 72 -9 87t-59 21v29h224v-29q-50 -6 -59 -21t-9 -87v-82h198v82q0 72 -8.5 87t-59.5 21v29h224v-29q-50 -6 -59 -21t-9 -87v-215q0 -72 8.5 -87t59.5 -21v-29h-224v29q49 4 58.5 20t9.5 88v96h-198
v-96z" />
    <glyph glyph-name="iacute" unicode="&#x43d;" horiz-adv-x="553" 
d="M178 137q0 -74 8.5 -88t59.5 -20v-29h-224v29q50 6 59 21t9 87v215q0 72 -9 87t-59 21v29h224v-29q-50 -6 -59 -21t-9 -87v-82h198v82q0 72 -8.5 87t-59.5 21v29h224v-29q-50 -6 -59 -21t-9 -87v-215q0 -72 8.5 -87t59.5 -21v-29h-224v29q49 4 58.5 20t9.5 88v96h-198
v-96z" />
    <glyph glyph-name="icircumflex" unicode="&#xee;" horiz-adv-x="527" 
d="M37 236q0 105 60 181q65 83 167 83q99 0 163 -84q59 -77 59 -179q0 -99 -65.5 -173.5t-162.5 -74.5q-93 0 -157 75.5t-64 171.5zM385 256q0 77 -23 133q-32 78 -98 78q-68 0 -101 -75q-25 -57 -25 -134q0 -79 23 -144q33 -92 97 -92q68 0 102 88q25 65 25 146z" />
    <glyph glyph-name="icircumflex" unicode="&#x43e;" horiz-adv-x="527" 
d="M37 236q0 105 60 181q65 83 167 83q99 0 163 -84q59 -77 59 -179q0 -99 -65.5 -173.5t-162.5 -74.5q-93 0 -157 75.5t-64 171.5zM385 256q0 77 -23 133q-32 78 -98 78q-68 0 -101 -75q-25 -57 -25 -134q0 -79 23 -144q33 -92 97 -92q68 0 102 88q25 65 25 146z" />
    <glyph glyph-name="idieresis" unicode="&#xef;" horiz-adv-x="553" 
d="M178 137q0 -72 8.5 -87t59.5 -21v-29h-224v29q50 6 59 21t9 87v215q0 72 -9 87t-59 21v29h510v-29q-50 -6 -59 -21t-9 -87v-215q0 -72 8.5 -87t59.5 -21v-29h-224v29q51 6 59.5 20.5t8.5 87.5v215q0 81 -8.5 94.5t-59.5 13.5h-62q-51 0 -59.5 -13.5t-8.5 -94.5v-215z" />
    <glyph glyph-name="idieresis" unicode="&#x43f;" horiz-adv-x="553" 
d="M178 137q0 -72 8.5 -87t59.5 -21v-29h-224v29q50 6 59 21t9 87v215q0 72 -9 87t-59 21v29h510v-29q-50 -6 -59 -21t-9 -87v-215q0 -72 8.5 -87t59.5 -21v-29h-224v29q51 6 59.5 20.5t8.5 87.5v215q0 81 -8.5 94.5t-59.5 13.5h-62q-51 0 -59.5 -13.5t-8.5 -94.5v-215z" />
    <glyph glyph-name="eth" unicode="&#xf0;" horiz-adv-x="527" 
d="M170 -38q0 -72 9 -87t58 -22v-29h-223v29q50 7 59 22t9 87v390q0 43 -10 56q-13 16 -56 16v24l154 59v-71q35 30 65 45q38 19 77 19q88 0 142 -80q48 -71 48 -163q0 -105 -48 -180q-56 -88 -156 -88q-36 0 -68 16t-60 45v-88zM170 90q29 -27 48 -39q30 -19 59 -19
q73 0 106 79q24 57 24 143q0 80 -26 133q-34 70 -106 70q-24 0 -55 -19t-50 -41v-307z" />
    <glyph glyph-name="eth" unicode="&#x440;" horiz-adv-x="527" 
d="M170 -38q0 -72 9 -87t58 -22v-29h-223v29q50 7 59 22t9 87v390q0 43 -10 56q-13 16 -56 16v24l154 59v-71q35 30 65 45q38 19 77 19q88 0 142 -80q48 -71 48 -163q0 -105 -48 -180q-56 -88 -156 -88q-36 0 -68 16t-60 45v-88zM170 90q29 -27 48 -39q30 -19 59 -19
q73 0 106 79q24 57 24 143q0 80 -26 133q-34 70 -106 70q-24 0 -55 -19t-50 -41v-307z" />
    <glyph glyph-name="ntilde" unicode="&#xf1;" horiz-adv-x="474" 
d="M463 119q-38 -58 -89 -92q-57 -38 -122 -38q-95 0 -159.5 73.5t-64.5 169.5q0 114 70.5 191t184.5 77q53 0 103 -26q61 -32 61 -79q0 -21 -15.5 -35.5t-38.5 -14.5q-34 0 -62 61t-79 61q-69 0 -100 -77q-23 -56 -23 -136q0 -81 40 -142q46 -70 124 -70q46 0 87 28
q27 18 68 63z" />
    <glyph glyph-name="ntilde" unicode="&#x441;" horiz-adv-x="474" 
d="M463 119q-38 -58 -89 -92q-57 -38 -122 -38q-95 0 -159.5 73.5t-64.5 169.5q0 114 70.5 191t184.5 77q53 0 103 -26q61 -32 61 -79q0 -21 -15.5 -35.5t-38.5 -14.5q-34 0 -62 61t-79 61q-69 0 -100 -77q-23 -56 -23 -136q0 -81 40 -142q46 -70 124 -70q46 0 87 28
q27 18 68 63z" />
    <glyph glyph-name="ograve" unicode="&#xf2;" 
d="M326 460q-19 0 -24 -13q-8 -20 -8 -95v-215q0 -72 8.5 -87t59.5 -21v-29h-224v29q50 6 59 21t9 87v215q0 75 -6 91.5t-24 16.5q-37 0 -154 -167l-23 10l66 186h375l63 -186l-23 -10q-116 167 -154 167z" />
    <glyph glyph-name="ograve" unicode="&#x442;" 
d="M326 460q-19 0 -24 -13q-8 -20 -8 -95v-215q0 -72 8.5 -87t59.5 -21v-29h-224v29q50 6 59 21t9 87v215q0 75 -6 91.5t-24 16.5q-37 0 -154 -167l-23 10l66 186h375l63 -186l-23 -10q-116 167 -154 167z" />
    <glyph glyph-name="oacute" unicode="&#xf3;" 
d="M347 343q9 23 13 36q8 26 8 39q0 25 -22 33.5t-52 8.5v29h213v-29q-15 0 -28.5 -2.5t-22.5 -10.5q-19 -14 -39 -55q-9 -19 -27 -67l-144 -358q-27 -72 -52 -104q-39 -50 -99 -50q-30 0 -54 18t-24 48q0 23 15 37t38 14q22 0 43.5 -19.5t31.5 -19.5q25 0 46 47l26 70
l-143 361q-27 65 -38 75q-17 16 -50 16v29h226v-29q-25 0 -42.5 -5.5t-17.5 -23.5q0 -11 3.5 -22.5t9.5 -25.5l97 -258z" />
    <glyph glyph-name="oacute" unicode="&#x443;" 
d="M347 343q9 23 13 36q8 26 8 39q0 25 -22 33.5t-52 8.5v29h213v-29q-15 0 -28.5 -2.5t-22.5 -10.5q-19 -14 -39 -55q-9 -19 -27 -67l-144 -358q-27 -72 -52 -104q-39 -50 -99 -50q-30 0 -54 18t-24 48q0 23 15 37t38 14q22 0 43.5 -19.5t31.5 -19.5q25 0 46 47l26 70
l-143 361q-27 65 -38 75q-17 16 -50 16v29h226v-29q-25 0 -42.5 -5.5t-17.5 -23.5q0 -11 3.5 -22.5t9.5 -25.5l97 -258z" />
    <glyph glyph-name="ocircumflex" unicode="&#xf4;" horiz-adv-x="685" 
d="M297 50q-13 -26 -38.5 -43.5t-49.5 -17.5q-90 0 -140 87q-44 76 -44 181q0 95 39 162q47 81 134 81q38 0 60 -16q16 -12 39 -48v176q0 43 -10 56q-13 16 -56 16v24l154 59v-331q24 37 38 48q21 16 61 16q86 0 133 -80q40 -68 40 -163q0 -106 -43 -180q-51 -88 -141 -88
q-27 0 -50 16t-38 45v-88q0 -72 9 -87t58 -22v-29h-223v29q50 7 59 22t9 87v88zM297 397q-21 33 -27 39q-19 21 -41 21q-60 0 -88 -69q-21 -52 -21 -134q0 -94 16 -143q26 -79 94 -79q26 0 49 28q7 9 18 28v309zM385 88q10 -19 17 -28q23 -28 50 -28q67 0 93 79
q17 51 17 143q0 80 -21 133q-28 70 -88 70q-22 0 -41 -20q-10 -11 -27 -40v-309z" />
    <glyph glyph-name="ocircumflex" unicode="&#x444;" horiz-adv-x="685" 
d="M297 50q-13 -26 -38.5 -43.5t-49.5 -17.5q-90 0 -140 87q-44 76 -44 181q0 95 39 162q47 81 134 81q38 0 60 -16q16 -12 39 -48v176q0 43 -10 56q-13 16 -56 16v24l154 59v-331q24 37 38 48q21 16 61 16q86 0 133 -80q40 -68 40 -163q0 -106 -43 -180q-51 -88 -141 -88
q-27 0 -50 16t-38 45v-88q0 -72 9 -87t58 -22v-29h-223v29q50 7 59 22t9 87v88zM297 397q-21 33 -27 39q-19 21 -41 21q-60 0 -88 -69q-21 -52 -21 -134q0 -94 16 -143q26 -79 94 -79q26 0 49 28q7 9 18 28v309zM385 88q10 -19 17 -28q23 -28 50 -28q67 0 93 79
q17 51 17 143q0 80 -21 133q-28 70 -88 70q-22 0 -41 -20q-10 -11 -27 -40v-309z" />
    <glyph glyph-name="otilde" unicode="&#xf5;" horiz-adv-x="527" 
d="M401 129q35 -46 55 -64q39 -36 75 -36v-29h-232v29q21 0 29 2q19 5 19 20q0 9 -14 26.5l-18 22.5l-76 94l-55 -71l-21 -27q-14 -19 -14 -31q0 -22 20.5 -29t46.5 -7v-29h-220v29q43 5 84 43q16 15 64 74l67 85l-121 152q-34 42 -42 49q-30 28 -56 28v29h239v-29
q-31 0 -45.5 -3.5t-14.5 -22.5q0 -13 15 -34l24 -30l56 -70l50 65q11 14 23.5 32t12.5 31q0 21 -16 26.5t-42 5.5v29h211v-29q-47 0 -84 -37q-12 -12 -38 -45l-89 -116z" />
    <glyph glyph-name="otilde" unicode="&#x445;" horiz-adv-x="527" 
d="M401 129q35 -46 55 -64q39 -36 75 -36v-29h-232v29q21 0 29 2q19 5 19 20q0 9 -14 26.5l-18 22.5l-76 94l-55 -71l-21 -27q-14 -19 -14 -31q0 -22 20.5 -29t46.5 -7v-29h-220v29q43 5 84 43q16 15 64 74l67 85l-121 152q-34 42 -42 49q-30 28 -56 28v29h239v-29
q-31 0 -45.5 -3.5t-14.5 -22.5q0 -13 15 -34l24 -30l56 -70l50 65q11 14 23.5 32t12.5 31q0 21 -16 26.5t-42 5.5v29h211v-29q-47 0 -84 -37q-12 -12 -38 -45l-89 -116z" />
    <glyph glyph-name="odieresis" unicode="&#xf6;" horiz-adv-x="553" 
d="M22 0v29q46 6 57 22.5t11 85.5v215q0 69 -10.5 85.5t-57.5 22.5v29h224v-29q-46 -6 -57 -22.5t-11 -85.5v-215q0 -81 5 -94.5t36 -13.5h97q45 0 52.5 13.5t7.5 94.5v215q0 69 -10.5 85.5t-57.5 22.5v29h224v-29q-47 -6 -57.5 -22t-10.5 -86v-215q0 -70 10 -86t58 -22
l58 -186l-20 -10q-54 87 -72 108q-51 59 -157 59h-319z" />
    <glyph glyph-name="odieresis" unicode="&#x446;" horiz-adv-x="553" 
d="M22 0v29q46 6 57 22.5t11 85.5v215q0 69 -10.5 85.5t-57.5 22.5v29h224v-29q-46 -6 -57 -22.5t-11 -85.5v-215q0 -81 5 -94.5t36 -13.5h97q45 0 52.5 13.5t7.5 94.5v215q0 69 -10.5 85.5t-57.5 22.5v29h224v-29q-47 -6 -57.5 -22t-10.5 -86v-215q0 -70 10 -86t58 -22
l58 -186l-20 -10q-54 87 -72 108q-51 59 -157 59h-319z" />
    <glyph glyph-name="divide" unicode="&#xf7;" horiz-adv-x="553" 
d="M90 352q0 71 -8.5 86t-59.5 22v29h224v-29q-49 -6 -58.5 -21.5t-9.5 -86.5v-35q0 -77 78 -77q45 0 120 30v82q0 72 -8.5 87t-59.5 21v29h224v-29q-50 -6 -59 -21t-9 -87v-215q0 -72 8.5 -87t59.5 -21v-29h-224v29q51 6 59.5 20.5t8.5 87.5v96q-41 -20 -81 -31t-78 -11
q-58 0 -90 28q-37 32 -37 98v35z" />
    <glyph glyph-name="divide" unicode="&#x447;" horiz-adv-x="553" 
d="M90 352q0 71 -8.5 86t-59.5 22v29h224v-29q-49 -6 -58.5 -21.5t-9.5 -86.5v-35q0 -77 78 -77q45 0 120 30v82q0 72 -8.5 87t-59.5 21v29h224v-29q-50 -6 -59 -21t-9 -87v-215q0 -72 8.5 -87t59.5 -21v-29h-224v29q51 6 59.5 20.5t8.5 87.5v96q-41 -20 -81 -31t-78 -11
q-58 0 -90 28q-37 32 -37 98v35z" />
    <glyph glyph-name="oslash" unicode="&#xf8;" horiz-adv-x="764" 
d="M22 0v29q50 6 59 21t9 87v215q0 72 -9 87t-59 21v29h214v-29q-40 -5 -49 -15t-9 -51v-42v-215q0 -16 -0.5 -30.5t-0.5 -26.5q0 -37 9 -44t50 -7h44q42 0 50 7t8 48v53v215v45q0 39 -8.5 48.5t-49.5 14.5v29h204v-29q-41 -5 -49.5 -15.5t-8.5 -51.5v-41v-215
q0 -16 -0.5 -30.5t-0.5 -26.5q0 -37 9 -44t50 -7h44q42 0 50 7t8 48v53v215v44q0 40 -8.5 49.5t-49.5 14.5v29h214v-29q-50 -6 -59 -21t-9 -87v-215q0 -72 9 -87t59 -21v-29h-720z" />
    <glyph glyph-name="oslash" unicode="&#x448;" horiz-adv-x="764" 
d="M22 0v29q50 6 59 21t9 87v215q0 72 -9 87t-59 21v29h214v-29q-40 -5 -49 -15t-9 -51v-42v-215q0 -16 -0.5 -30.5t-0.5 -26.5q0 -37 9 -44t50 -7h44q42 0 50 7t8 48v53v215v45q0 39 -8.5 48.5t-49.5 14.5v29h204v-29q-41 -5 -49.5 -15.5t-8.5 -51.5v-41v-215
q0 -16 -0.5 -30.5t-0.5 -26.5q0 -37 9 -44t50 -7h44q42 0 50 7t8 48v53v215v44q0 40 -8.5 49.5t-49.5 14.5v29h214v-29q-50 -6 -59 -21t-9 -87v-215q0 -72 9 -87t59 -21v-29h-720z" />
    <glyph glyph-name="ugrave" unicode="&#xf9;" horiz-adv-x="764" 
d="M22 0v29q50 6 59 21t9 87v215q0 72 -9 87t-59 21v29h214v-29q-40 -5 -49 -15t-9 -51v-42v-215q0 -16 -0.5 -30.5t-0.5 -26.5q0 -37 9 -44t50 -7h44q42 0 50 7t8 48v53v215v44q0 40 -8.5 49.5t-49.5 14.5v29h204v-29q-41 -5 -49.5 -15.5t-8.5 -51.5v-41v-215
q0 -16 -0.5 -30.5t-0.5 -26.5q0 -37 9 -44t50 -7h44q42 0 50 7t8 48v53v215v44q0 40 -8.5 49.5t-49.5 14.5v29h214v-29q-50 -6 -59 -21t-9 -87v-215q0 -72 9 -87t60 -21l66 -186l-23 -10q-69 99 -77 108q-51 58 -166 58z" />
    <glyph glyph-name="ugrave" unicode="&#x449;" horiz-adv-x="764" 
d="M22 0v29q50 6 59 21t9 87v215q0 72 -9 87t-59 21v29h214v-29q-40 -5 -49 -15t-9 -51v-42v-215q0 -16 -0.5 -30.5t-0.5 -26.5q0 -37 9 -44t50 -7h44q42 0 50 7t8 48v53v215v44q0 40 -8.5 49.5t-49.5 14.5v29h204v-29q-41 -5 -49.5 -15.5t-8.5 -51.5v-41v-215
q0 -16 -0.5 -30.5t-0.5 -26.5q0 -37 9 -44t50 -7h44q42 0 50 7t8 48v53v215v44q0 40 -8.5 49.5t-49.5 14.5v29h214v-29q-50 -6 -59 -21t-9 -87v-215q0 -72 9 -87t60 -21l66 -186l-23 -10q-69 99 -77 108q-51 58 -166 58z" />
    <glyph glyph-name="uacute" unicode="&#xfa;" horiz-adv-x="527" 
d="M308 489v-29q-45 0 -56.5 -14.5t-11.5 -70.5v-105h50q97 0 148 -24q67 -31 67 -106q0 -62 -49 -101t-117 -39h-255v29q46 0 57 14t11 71v261q0 46 -1 54q-4 31 -34 31q-33 0 -150 -167l-23 10l66 186h298zM240 104q0 -47 7 -58q11 -17 52 -17q115 0 115 107q0 67 -44 89
q-32 16 -116 16h-14v-137z" />
    <glyph glyph-name="uacute" unicode="&#x44a;" horiz-adv-x="527" 
d="M308 489v-29q-45 0 -56.5 -14.5t-11.5 -70.5v-105h50q97 0 148 -24q67 -31 67 -106q0 -62 -49 -101t-117 -39h-255v29q46 0 57 14t11 71v261q0 46 -1 54q-4 31 -34 31q-33 0 -150 -167l-23 10l66 186h298zM240 104q0 -47 7 -58q11 -17 52 -17q115 0 115 107q0 67 -44 89
q-32 16 -116 16h-14v-137z" />
    <glyph glyph-name="ucircumflex" unicode="&#xfb;" horiz-adv-x="712" 
d="M178 270h50q97 0 148 -24q67 -31 67 -106q0 -62 -49 -101t-117 -39h-255v29q46 0 57 14t11 71v261q0 56 -11.5 70.5t-56.5 14.5v29h224v-29q-45 0 -56.5 -14.5t-11.5 -70.5v-105zM618 137q0 -72 8.5 -87t59.5 -21v-29h-224v29q50 6 59 21t9 87v215q0 72 -9 87t-59 21v29
h224v-29q-50 -6 -59 -21t-9 -87v-215zM178 104q0 -47 7 -58q11 -17 52 -17q115 0 115 107q0 67 -44 89q-32 16 -116 16h-14v-137z" />
    <glyph glyph-name="ucircumflex" unicode="&#x44b;" horiz-adv-x="712" 
d="M178 270h50q97 0 148 -24q67 -31 67 -106q0 -62 -49 -101t-117 -39h-255v29q46 0 57 14t11 71v261q0 56 -11.5 70.5t-56.5 14.5v29h224v-29q-45 0 -56.5 -14.5t-11.5 -70.5v-105zM618 137q0 -72 8.5 -87t59.5 -21v-29h-224v29q50 6 59 21t9 87v215q0 72 -9 87t-59 21v29
h224v-29q-50 -6 -59 -21t-9 -87v-215zM178 104q0 -47 7 -58q11 -17 52 -17q115 0 115 107q0 67 -44 89q-32 16 -116 16h-14v-137z" />
    <glyph glyph-name="udieresis" unicode="&#xfc;" horiz-adv-x="448" 
d="M178 270h50q97 0 148 -24q67 -31 67 -106q0 -62 -49 -101t-117 -39h-255v29q46 0 57 14t11 71v261q0 56 -11.5 70.5t-56.5 14.5v29h224v-29q-45 0 -56.5 -14.5t-11.5 -70.5v-105zM178 104q0 -47 7 -58q11 -17 52 -17q115 0 115 107q0 67 -44 89q-32 16 -116 16h-14v-137z
" />
    <glyph glyph-name="udieresis" unicode="&#x44c;" horiz-adv-x="448" 
d="M178 270h50q97 0 148 -24q67 -31 67 -106q0 -62 -49 -101t-117 -39h-255v29q46 0 57 14t11 71v261q0 56 -11.5 70.5t-56.5 14.5v29h224v-29q-45 0 -56.5 -14.5t-11.5 -70.5v-105zM178 104q0 -47 7 -58q11 -17 52 -17q115 0 115 107q0 67 -44 89q-32 16 -116 16h-14v-137z
" />
    <glyph glyph-name="yacute" unicode="&#xfd;" horiz-adv-x="474" 
d="M54 331l-24 13l58 163q20 -23 45 -23q12 0 30 4q40 9 56 9q103 0 168 -78t65 -187q0 -96 -64.5 -169.5t-159.5 -73.5q-66 0 -122 37q-49 32 -89 93l15 14q53 -58 85 -74.5t70 -16.5q73 0 120 61q43 56 43 130h-234v37h235q0 75 -25 128q-33 69 -98 69t-120 -65
q-36 -48 -54 -71z" />
    <glyph glyph-name="yacute" unicode="&#x44d;" horiz-adv-x="474" 
d="M54 331l-24 13l58 163q20 -23 45 -23q12 0 30 4q40 9 56 9q103 0 168 -78t65 -187q0 -96 -64.5 -169.5t-159.5 -73.5q-66 0 -122 37q-49 32 -89 93l15 14q53 -58 85 -74.5t70 -16.5q73 0 120 61q43 56 43 130h-234v37h235q0 75 -25 128q-33 69 -98 69t-120 -65
q-36 -48 -54 -71z" />
    <glyph glyph-name="thorn" unicode="&#xfe;" horiz-adv-x="713" 
d="M246 233h-68v-96q0 -72 8.5 -87t59.5 -21v-29h-224v29q50 6 59 21t9 87v215q0 72 -9 87t-59 21v29h224v-29q-50 -6 -59 -21t-9 -87v-82l70 -1q10 95 68 160q63 71 153 71q96 0 159 -84q58 -77 58 -179q0 -100 -62 -172q-65 -76 -161 -76q-90 0 -153.5 74.5t-63.5 169.5z
M588 256q0 76 -23 133q-32 78 -96 78q-66 0 -99 -75q-25 -57 -25 -134q0 -78 23 -144q32 -92 95 -92q68 0 101 88q24 63 24 146z" />
    <glyph glyph-name="thorn" unicode="&#x44e;" horiz-adv-x="713" 
d="M246 233h-68v-96q0 -72 8.5 -87t59.5 -21v-29h-224v29q50 6 59 21t9 87v215q0 72 -9 87t-59 21v29h224v-29q-50 -6 -59 -21t-9 -87v-82l70 -1q10 95 68 160q63 71 153 71q96 0 159 -84q58 -77 58 -179q0 -100 -62 -172q-65 -76 -161 -76q-90 0 -153.5 74.5t-63.5 169.5z
M588 256q0 76 -23 133q-32 78 -96 78q-66 0 -99 -75q-25 -57 -25 -134q0 -78 23 -144q32 -92 95 -92q68 0 101 88q24 63 24 146z" />
    <glyph glyph-name="ydieresis" unicode="&#xff;" horiz-adv-x="474" 
d="M255 238l-151 -238h-123v22q29 0 70 63l109 159q-55 7 -90 40t-35 83q0 64 66 96q54 26 131 26h217v-29q-44 0 -58 -26q-10 -18 -10 -62v-20v-215q0 -60 13 -84t55 -24v-29h-224v29q42 0 55 23.5t13 84.5v101h-38zM293 394q0 34 -2 42q-6 24 -47 24q-54 0 -85.5 -22.5
t-31.5 -70.5q0 -55 35 -79q31 -21 92 -21h39v127z" />
    <glyph glyph-name="ydieresis" unicode="&#x44f;" horiz-adv-x="474" 
d="M255 238l-151 -238h-123v22q29 0 70 63l109 159q-55 7 -90 40t-35 83q0 64 66 96q54 26 131 26h217v-29q-44 0 -58 -26q-10 -18 -10 -62v-20v-215q0 -60 13 -84t55 -24v-29h-224v29q42 0 55 23.5t13 84.5v101h-38zM293 394q0 34 -2 42q-6 24 -47 24q-54 0 -85.5 -22.5
t-31.5 -70.5q0 -55 35 -79q31 -21 92 -21h39v127z" />
    </font>
</defs>
</svg>
